アットウィキロゴ
枝に結ぶ願い [2]
Akhuta

EXTREME

Level: 9
BPM: 204
Notes: 735

1
口口口口 |----|
口口口口 |----|
口口口口 |----|
口口口口 |----|
2
口③口① |①---|
口口口口 |②---|
口②④口 |③---|
口口口口 |④---|
3
口口口口 |①---|
③口口① |②---|
口口口口 |③---|
②④口口 |④---|
4
③口口口 |①---|
口口口① |②---|
口口④口 |③---|
口口②口 |④---|
5
口口①口 |①---|
口③口口 |②---|
口②口口 |③---|
口口口④ |④---|
6
口口①口 |①---|
③口③① |②---|
口②口口 |③---|
④④②口 |④---|
7
③口③① |①---|
口口口① |②---|
口②④口 |③---|
口口④② |④---|
8
口口口② |①---②-|
⑦①①④ |③---④-|
⑤口口⑥ |⑤---⑥-|
③口口⑧ |⑦---⑧-|
9
①③⑧口 |①---②-|
口⑤⑥口 |③---④-|
口⑦④口 |⑤---⑥-|
口口②口 |⑦---⑧-|
10
口口口口 |①---|
口口口口 |----|
口口口口
口①<口

口口口∨
口口口②
口口口口 |②---|
口②口口 |----|
11
口口口口 |①---|
口口口① |----|
∨口口口
①口口口

口口②口
口口∧口
口口口口 |②---|
②口口口 |----|
12
口口①口 |①---|
口口口口 |----|
①―<口
口口口口

口口口∨
口口口|
②口口② |②---|
口口口口 |----|
13
口∨口口 |①---|
口|口口 |----|
口|口①
口①口口

――②
口口口口
口口口口 |②---|
口②口口 |----|
14
②口口① |①---|
口②口口 |②---|
①口④③ |③---|
①④口③ |④---|
15
②④口口 |①---|
口②①③ |②---|
①③④口 |③---|
口口口口 |④---|
16
②口口② |①---|
口口④口 |②---|
④③口口 |③---|
①口③① |④---|
17
口①③口 |①---|
②④口① |②---|
口③④口 |③---|
口口口② |④---|
18
口②③口 |①---|
②口③口 |②---|
口④口① |③---|
①口口④ |④---|
19
①口③口 |①---|
口口口② |②---|
③口口② |③---|
口口①口 |----|
20
④②口口 |①---|
口②①③ |②---|
口口口④ |③---|
口①③口 |④---|
21
口②①④ |①---|
②口③口 |②---|
口④口口 |③---|
口①口③ |④---|
22
①③③口 |①---|
口①口③ |②---|
②④②④ |③---|
口②①④ |④---|
23
口③口① |①---|
①口③④ |②---|
口④口口 |③---|
②口②口 |④---|
24
①③①③ |①---|
④①④口 |②---|
②口④③ |③---|
②口②口 |④---|
25
口③②③ |①---|
口①口① |②---|
②口口③ |③---|
②①口口 |----|
26
①――< |①---|
口口②口 |----|
口口口口 |②---|
口口①口 |----|
27
口口口口 |①---|
口口口② |----|
口①口口 |②---|
口口口口 |----|
28
口口口口 |①---|
口口口口 |----|
口口口口 |----|
――① |----|
29
口口口口 |----|
口口口口 |----|
口口口口 |----|
口口口口 |----|
30
①口口口 |①---|
口口口口
口口口口
口口口①
31
①⑦口口 |①---|
⑨③⑧② |②③④⑤|
口口⑥口 |⑥-⑦-|
⑪⑤⑩④ |⑧⑨⑩⑪|
32
口口②⑨ |①-②-|
口④口③ |③④⑤⑥|
口①⑦⑧ |⑦---|
口⑥口⑤ |⑧-⑨-|
33
口口③口 |①-②-|
①④⑥口 |③-④-|
口口⑤口 |⑤---|
②口口口 |⑥---|
34
①⑦口口 |①---|
⑨③⑧② |②③④⑤|
口口⑥口 |⑥-⑦-|
⑪⑤⑩④ |⑧⑨⑩⑪|
35
口口②⑨ |①-②-|
口④口③ |③④⑤⑥|
口①⑦⑧ |⑦---|
口⑥口⑤ |⑧-⑨-|
36
②④④口 |①-②-|
口口口口 |③---|
①③口口 |④---|
口口③口 |----|
37
②口口① |----|
⑥⑧⑦⑤ |①②③④|
⑩④③⑨ |⑤⑥⑦⑧|
口⑫⑪口 |⑨⑩⑪⑫|
38
③①①口 |①---|
口③口口 |--②-|
口②②口 |----|
口口口口 |③---|
39
口口口口 |----|
口口口① |①---|
口口②口 |②---|
口③口口 |③---|
40
口②②口 |----|
口①口口 |--①-|
①口口口 |----|
口口口口 |②---|
41
口口口① |----|
口②②口 |①---|
口口口③ |②---|
口口口口 |③---|
42
③口④④ |①---|
②口口口 |②---|
①口口口 |③---|
口口①口 |④---|
43
口口口口 |①---|
口③口① |--②-|
③②①口 |----|
口②口口 |③---|
44
口①②② |①---|
①③口口 |--②-|
口口口口 |----|
口口口口 |③---|
45
口口口③ |①---|
口口口口 |--②-|
③口①口 |----|
②②口口 |③---|
46
①口②口 |①---|
口③口口 |----|
口口④口 |--②-|
口口口① |③-④-|
47
口口口④ |①---|
口口口③ |②---|
口口口② |③---|
口①口口 |④---|
48
①口口口 |①---|
口②口口 |--②-|
口口③口 |----|
口口口口 |③---|
49
口口口口 |①---|
④口口② |②---|
③②④① |③---|
口①③口 |④---|
50
口①①④ |①---|
⑤③口口 |②---|
口②⑥口 |③-④-|
口口口口 |⑤-⑥-|
51
口②②口 |①---|
口口③口 |②---|
口口口④ |③---|
口①口口 |④---|
52
口口口口 |①---|
口口口口
口口口口
―①口

口口口口
②―<口 |--②-|
口口口口
口口②口

口口∨口
③口|口
口口③口 |----|
口口口口 |③---|
53
①―<口 |--①-|
口口口口 |----|
口口①口
口口口口

②口口口
口口>②
口口口口 |②---|
口口口口 |----|
54
∨口口口 |①-②-|
①⑧⑦① |③-④-|
①③⑤① |⑤-⑥-|
∧④②⑥ |⑦-⑧-|
55
口口口口 |①---|
①口口① |----|
①>②① |②---|
口口口口 |----|
56
口①<口 |①---|
口口口口 |----|
口口①口
口口口口

口②口口
口口口∨
口口口② |②---|
口口口口 |----|
57
口口口口 |①---|
口口口口 |----|
∨口口①
①口口口

口口口口
口口②口
口口|口 |②---|
②口∧口 |----|
58
口口口口 |①---|
口口①口 |----|
口①―<
口口口口

口口口②
口口口|
口②口| |②---|
口口口∧ |----|
59
①口①① |①---|
④③②口 |②-③-|
②⑦口⑤ |④-⑤-|
⑥口⑥口 |⑥-⑦-|
60
①⑦③口 |①---|
④口口⑥ |②-③-|
②口⑤口 |④-⑤-|
⑥口口口 |⑥-⑦-|
61
①口口⑥ |①-②-|
⑤⑧②⑧ |③-④-|
③口⑥口 |⑤-⑥-|
⑦口④口 |⑦-⑧-|
62
①口③⑤ |①---|
④口③口 |②-③-|
②⑥口口 |④-⑤-|
⑥口⑦口 |⑥-⑦-|
63
①③③口 |①---|
④口⑤① |②-③-|
②⑥①口 |④-⑤-|
⑥口⑦口 |⑥-⑦-|
64
①口③③ |①---|
④口⑥口 |②-③-|
②口⑤① |--④-|
口口口① |⑤-⑥-|
65
⑥①口∨ |①②③④|
⑦②口① |⑤---|
⑧③⑩⑤ |⑥⑦⑧⑨|
⑨④口口 |⑩---|
66
⑦③口④ |①-②-|
口口①① |③-④-|
口②⑧口 |⑤-⑥-|
⑥⑨口⑤ |⑦-⑧⑨|
67
口口①口 |①---|
④③②① |②-③-|
②⑦口⑤ |④-⑤-|
⑥口⑥口 |⑥-⑦-|
68
①⑦③口 |①---|
④口口⑥ |②-③-|
②口⑤口 |④-⑤-|
⑥口口口 |⑥-⑦-|
69
①口口① |①-②-|
⑤口②口 |③-④-|
③⑥口⑧ |⑤-⑥-|
⑦口④⑧ |⑦-⑧-|
70
⑩⑥①⑤ |①②③④|
⑩②⑦⑤ |⑤---|
口⑧③口 |⑥⑦⑧⑨|
口④⑨口 |⑩---|
71
口口③④ |①---|
口①④③ |②-③-|
②口口① |----|
口口口口 |④---|
72
⑥⑥⑤口 |①---②-|
⑥口口③ |--③---|
⑤②①④ |④---⑤-|
①③④② |--⑥---|
73
口口⑤口 |----|
口口①① |①---|
口②口③ |②-③-|
⑤口④口 |④-⑤-|
74
②口口① |--①-|
口④③口 |--②-|
口③④口 |--③-|
口①口② |④---|
75
②①⑤① |----|
口⑤口③ |①---|
口口口口 |②-③-|
口口④口 |④-⑤-|
76
口口口口 |--①-|
①口口口 |②-③-|
口②口④ |----|
③口④口 |④---|
77
①口①口 |①---|
②口③① |--②-|
③口口口 |----|
口口口口 |③---|
78
①③③③ |①---|
口口口口 |--②-|
口口①口 |----|
②②①口 |③---|
79
口口口口 |①-②-|
口口③② |③---|
――①
口口③②

口口口口
④⑤口口
⑥⑥口口 |④-⑤-|
④⑤口口 |--⑥-|
80
①①③口 |①---|
口④口③ |②---|
口口②② |③---|
口④口口 |④---|
81
①③口① |①---|
④口②口 |②-③-|
②⑦口⑤ |④-⑤-|
⑥口⑥口 |⑥-⑦-|
82
①⑦③口 |①---|
④口口⑥ |②-③-|
②口⑤口 |④-⑤-|
⑥口口口 |⑥-⑦-|
83
①口口① |①-②-|
⑤口②口 |③-④-|
③⑥口⑧ |⑤-⑥-|
⑦口④⑧ |⑦-⑧-|
84
⑩⑥①⑤ |①②③④|
⑩②⑦⑤ |⑤---|
口⑧③口 |⑥⑦⑧⑨|
口④⑨口 |⑩---|
85
口口①③ |①---|
口①④③ |②-③-|
②④口口 |----|
口口口口 |④---|
86
②―<口 |①---|
口口口口 |----|
口口口口 |②---|
①①口口 |----|
87
④口口⑦ |--①-|
口口①⑥ |②-③-|
④<②⑤ |④-⑤-|
口口③④ |⑥-⑦-|
88
口口①口 |①---|
①―<③ |--②-|
①口口③ |----|
口②口口 |③---|
89
口口口口 |----|
口口①口 |①---|
口②口口 |②---|
口口口③ |③---|
90
口③口口 |①---|
①口②口 |--②-|
口口口① |----|
口口口口 |③---|
91
⑥口⑦口 |--①-|
①②口⑥ |②-③-|
④②⑤口 |④-⑤-|
口口③④ |⑥-⑦-|
92
口③口① |①---|
③口①口 |--②-|
口口口口 |----|
口②②口 |③---|
93
口口①口 |----|
口口②① |①---|
③②口口 |②---|
口③口口 |③---|
94
①口口① |①---|
口口口② |----|
口口②口 |----|
口口口口 |②---|
95
口口口口 |①---|
口口②口 |--②-|
口口③① |----|
口口①口 |③---|
96
口④③② |①-②③|
口⑦⑥⑤ |④-⑤⑥|
①⑩⑨⑧ |⑦-⑧⑨|
口①⑫⑪ |⑩-⑪⑫|
97
口④③② |①-②③|
口⑥口⑥ |④-⑤-|
⑤⑧⑦口 |⑥-⑦-|
⑨①口口 |⑧-⑨-|
98
口④③口 |①-②-|
②⑥⑤口 |③④⑤⑥|
口口口① |⑦-⑧-|
⑩⑨⑦⑧ |⑨-⑩-|
99
④⑥⑤③ |①②③④|
⑬⑧⑦⑬ |⑤⑥⑦⑧|
②⑩⑨① |⑨⑩⑪⑫|
口⑫⑪口 |⑬---|
100
②③口口 |①---|
口⑤⑤口 |②-③-|
口口口① |--④-|
④④口∧ |--⑤-|
101
②口⑤口 |--①-|
口④口口 |②---|
③①口② |----|
口口口口 |③-④-⑤-|
102
③②口④ |①-②-③-|
①口⑤⑧ |④-⑤-⑥-|
口⑥⑨口 |⑦-⑧-⑨-|
⑦⑩口口 |⑩---|
103
口⑤⑤口 |①---|
②①②口 |②-③-|
①③口口 |--④-|
④口①④ |--⑤-|
104
①口口① |--①-|
②口口② |②---|
①口口① |----|
口口口口 |----|
最終更新:2019年10月24日 02:51