アットウィキロゴ
Sephirot
SHIKI

EXTREME

Level: 10.4
BPM: 154
Notes(hold): 934(11)

1
口口口口 |----|
口口口口 |----|
口口口口 |----|
口口口口 |----|
2
⑥⑤⑥口 |①②③-|
⑦口⑦口 |④⑤--|
⑧口⑧口 |⑥--⑦|
④①②③ |--⑧-|
3
⑥⑤⑥口 |①②③-|
⑦口⑦口 |④⑤--|
⑧口⑧口 |⑥--⑦|
④①②③ |--⑧-|
4
⑥⑤⑥口 |①②③-|
⑦口⑦口 |④⑤--|
⑧口⑧口 |⑥--⑦|
④①②③ |--⑧-|
5
④①④① |①--②|
⑥②⑤② |--③-|
⑥③⑤③ |-④--|
口口口口 |⑤-⑥-|
6
⑥⑤⑥口 |①②③-|
⑦口⑦口 |④⑤--|
⑧口⑧口 |⑥--⑦|
④①②③ |--⑧-|
7
⑥⑤⑥口 |①②③-|
⑦口⑦口 |④⑤--|
⑧口⑧口 |⑥--⑦|
④①②③ |--⑧-|
8
⑥口口⑤ |①②③④|
口②口① |⑤⑥⑦⑧|
口口口⑦
④⑧口③

口口⑨口
⑩⑭口⑬
⑫口口口 |⑨⑩⑪⑫|
⑯口⑪⑮ |⑬⑭⑮⑯|
9
②⑥⑨⑤ |①②③④|
⑩⑭①⑬ |⑤⑥⑦⑧|
⑯④⑦③ |⑨⑩⑪⑫|
⑫⑧⑮⑪ |⑬⑭⑮⑯|
10
①③口① |①-②-|
⑥⑧④口 |-③④-|
口②口④ |⑤--⑥|
口⑤⑦⑦ |⑦-⑧-|
11
①④①① |①--②|
口口口口 |--③-|
③⑥⑥口 |-④--|
⑤②口⑤ |⑤-⑥-|
12
①③口口 |①-②-|
口口口① |-③--|
②口口口
口口口口

口口⑦⑤
口④⑤⑦
口口口口 |④-⑤⑥|
⑥⑦口口 |--⑦-|
13
口口口口 |①--②|
①口口口 |③-④-|
④②③④
口口①①

口⑤⑥⑥
⑦⑧口口
口口口口 |-⑤⑥-|
口口口口 |⑦-⑧-|
14
①③口⑦ |①-②-|
⑥⑧④① |-③④-|
口②①④ |⑤--⑥|
口⑤⑧口 |⑦-⑧-|
15
①口口口 |①--②|
口口口① |③-④-|
④口①③
口②口③

口⑥口⑦
口口⑤口
口⑨⑨口 |⑤⑥⑦-|
⑧口口口 |⑧-⑨-|
16
①③①口 |①-②-|
口⑥口④ |--③---④⑤|
②口口⑤ |⑥--⑦|
⑦⑧口⑥ |--⑧-|
17
口口①① |①--②|
①口④口 |----③-④⑤|
③②⑤口
口口口口

口⑦口口
⑧⑨口口
口口口口 |⑥⑦--|
口口⑥口 |⑧-⑨-|
18
①③口① |①-②-|
⑥⑧④口 |-③④-|
口②口④ |⑤--⑥|
口⑤⑦⑦ |⑦-⑧-|
19
①④①① |①--②|
口口口口 |--③-|
③⑥⑥口 |-④--|
⑤②口⑤ |⑤-⑥-|
20
①③口口 |①-②-|
口口口① |-③--|
②口口口
口口口口

口口⑦⑤
口④⑤⑦
口口口口 |④-⑤⑥|
⑥⑦口口 |--⑦-|
21
口口口口 |①--②|
①口口口 |③-④-|
④②③④
口口①①

口⑤⑥⑥
⑦⑧口口
口口口口 |-⑤⑥-|
口口口口 |⑦-⑧-|
22
①③口⑦ |①-②-|
⑥⑧④① |-③④-|
口②①④ |⑤--⑥|
口⑤⑧口 |⑦-⑧-|
23
①⑦②⑧ |①--②|
口口③① |③-④⑤|
④⑩①⑤ |⑥⑦⑧-|
⑨②口⑥ |⑨-⑩-|
24
①口①口 |①-②③|
⑥②口⑤ |④⑤⑥⑦|
口口口③
口④口⑦

⑭⑩⑬⑨
口口口口
口⑫口⑮ |⑧⑨⑩⑪|
⑧口⑪口 |⑫⑬⑭⑮|
25
口口口口 |①②③④|
⑦③②⑥ |⑤⑥⑦⑧|
①口④口
口⑤口⑧

⑩口口⑪
口口口口
⑩口口⑪ |⑨---|
⑨口口口 |⑩-⑪-|
26
口③⑤⑨ |①-②-|
⑥②②⑤ |③④-⑤|
口⑧④⑦ |⑥⑦--|
⑧①①⑦ |⑧-⑨-|
27
口④⑤口 |①-②-|
口①①⑤ |③④-⑤|
口口③口
口②②口

口口口口
⑥口⑧口
口⑨口⑦ |⑥-⑦---⑧⑨|
⑩口⑪⑦ |⑩-⑪-|
28
①⑥⑤① |①-②-|
⑥④口⑤ |③④-⑤|
②口②⑦ |-⑥--|
⑧③口口 |⑦-⑧-|
29
①⑤口① |①-②-|
口③③④ |③-④⑤|
⑤①①口
口③③②

⑧口⑥⑨
⑦口口口
口口口⑥ |-⑥⑦-|
⑧口口⑨ |⑧-⑨-|
30
口③⑤⑨ |①-②-|
⑥②②⑤ |③④-⑤|
口⑧④⑦ |⑥⑦--|
⑧①①⑦ |⑧-⑨-|
31
口④⑤口 |①-②-|
口①①⑤ |③④-⑤|
口口③口
口②②口

口口口口
⑥口⑧口
口⑨口⑦ |⑥-⑦---⑧⑨|
⑩口⑪⑦ |⑩-⑪-|
32
①⑥⑤① |①-②③|
⑥④⑧⑪ |④⑤-⑥|
③⑨口⑦ |--⑦---⑧⑨|
⑩②⑦⑪ |⑩-⑪-|
33
口口口口 |①---|
口①③口 |--②③|
①口口口
口②口口

⑥④口⑨
口口口⑤
⑧⑩口口 |④⑤⑥⑦|
口口⑪⑦ |⑧⑨⑩⑪|
34
⑦⑧口口 |①②③④|
①②⑥口 |⑤⑥⑦⑧|
口口③口
④⑤口口

口口口⑫
⑬⑭口口
⑩⑪口⑨ |⑨⑩⑪⑫|
口口⑮口 |⑬⑭⑮-|
35
口口口口 |①---|
>――①
口口口口
口口口口

④口③⑪
口⑤⑩② |--②③|
口⑨⑥口 |④⑤⑥⑦|
⑧②口⑦ |⑧⑨⑩⑪|
36
口口口口 |①---|
①――<
口口口口
口口口口

口口口口
②口口口 |--②③|
口口③口
口口口②

⑤口⑥口
口⑦口④
口>―⑧ |④-⑤-|
口口口口 |⑥⑦-⑧|
37
口口口口 |-①②-|
口口口口 |----|
口口口①
②――<

口口口口
口⑤口口
口口口口 |----|
③口④口 |③-④⑤|
38
⑥口⑦① |①②③④|
口口⑧② |⑤⑥⑦⑧|
③口口④
口口口⑤

口⑫口口
口⑬口⑭
⑮⑨⑪口 |⑨⑩⑪⑫|
⑯⑩口口 |⑬⑭⑮⑯|
39
口口④口 |①②③④|
③口⑤口 |⑤⑥⑦⑧|
口口⑦①
口⑥⑧②

⑨⑬⑯⑫
口口口⑩
口⑪口⑭ |⑨⑩⑪⑫|
⑮口口口 |⑬⑭⑮⑯|
40
口口口口 |①---|
①――<
口口口口
口口口口

口⑤⑦口
②口口④ |--②③|
口口③⑥ |④-⑤-|
⑧―<② |⑥⑦-⑧|
41
>――② |-①②-|
口口口口 |----|
口口口口
①口口口

口口口③
口③③口
口口口口 |----|
口口口口 |③---|
42
④⑤口口 |①②③④|
口口口③ |⑤⑥⑦⑧|
⑦⑧口⑥
①②口口

口口⑯⑮
⑩⑪⑨口
口口口口 |⑨⑩⑪⑫|
⑬⑭口⑫ |⑬⑭⑮⑯|
43
①②口口 |①②③④|
⑦⑧口⑥ |⑤⑥⑦⑧|
④⑤口③
口口口口

口⑬口⑯
口口⑫口
⑮口⑨口 |⑨⑩⑪⑫|
⑩⑪口⑭ |⑬⑭⑮⑯|
44
①―<口 |①---|
口口口口
口口口口
口口口口

②口口口
口口口口 |--②③|
口③口口
口口②口

口口口口
⑤口④⑥
口口⑦口 |④-⑤-|
⑧―<口 |⑥⑦-⑧|
45
口口口口 |-①②-|
口口口口 |----|
>――②
①口口口

口口口口
口口口口
口口口③ |----|
口口口口 |③---|
46
口口口③ |①②③④|
④⑤口口 |⑤⑥⑦⑧|
⑦⑧口口
①②⑥口

⑩⑪⑫口
口口口⑨
口口⑮口 |⑨⑩⑪⑫|
⑬⑭口口 |⑬⑭⑮-|
47
⑦⑧口口 |①②③④|
①②③口 |⑤⑥⑦⑧|
④⑤口口
口口⑥口

口口口⑨
口⑪口口
口口⑩口 |⑨-⑩-|
口口口⑫ |⑪-⑫-|
48
口口口口 |①②③④|
⑦⑧③口 |⑤⑥⑦⑧|
①②口⑥
④⑤口口

⑩⑪⑮口
口口口⑫
⑬⑭口口 |⑨⑩⑪⑫|
口口⑨口 |⑬⑭⑮-|
49
⑦⑧口③ |①②③④|
④⑤口口 |⑤⑥⑦⑧|
口口口口
①②口⑥

口口口口
口口⑨⑯
⑩⑪⑬⑫ |⑨⑩⑪⑫|
⑭⑮口口 |⑬⑭⑮⑯|
50
>――① |①---|
口口口口 |----|
口口口口 |----|
口口口口 |----|
51
口口口口 |----|
口口口口 |----|
口口口口 |----|
口口口口 |----|
52
口口口口 |----|
口口口口 |----|
口口口口 |----|
口口口口 |----|
53
口口口① |①---|
口口口口 |----|
口口口口 |----|
口口口口 |----|
54
①口口① |①-②-|
口②③口 |③-④-|
口⑤口口 |----|
④口口④ |⑤---|
55
口①①口 |①-②-|
②口口④ |③-④-|
口⑥③口 |----|
口口⑤口 |⑤-⑥-|
56
口①①口 |①-②-|
⑤②⑥口 |③-④-|
口⑤③口 |--⑤-|
④口⑤④ |--⑥-|
57
口①口① |①-②-|
④②口③ |③-④-|
口口口①
④口口③

⑤口⑤口
口⑥口口
口口⑦口 |--⑤-|
口口口口 |--⑥⑦|
58
⑪口⑧口 |①-②③|
⑤⑫②⑨ |④-⑤⑥|
口⑥⑩③ |⑦-⑧⑨|
⑦①④口 |⑩-⑪⑫|
59
口④⑤口 |①---|
②⑥⑥③ |--②③|
①口口口 |④--⑤|
口④⑤口 |--⑥-|
60
⑥⑧⑦⑤ |①②③④|
口口口口 |⑤⑥⑦⑧|
口②①口
④口口③

口口口口
⑫⑪⑩⑨
⑯⑮⑭⑬ |⑨⑩⑪⑫⑬⑭|
⑳⑲⑱⑰ |⑮⑯⑰⑱⑲⑳|
61
②④③① |①②③④|
⑥⑧⑦⑤ |⑤⑥⑦⑧|
⑩⑫⑪⑨ |⑨⑩⑪⑫|
⑭⑯⑮⑬ |⑬⑭⑮⑯|
62
④口⑦① |①②③④|
②⑧③口 |⑤⑥⑦⑧|
⑥口口⑤
口口口口

⑯⑫口口
口口⑮⑪
口⑭⑬口 |⑨⑩⑪⑫|
⑩口口⑨ |⑬⑭⑮⑯|
63
⑦⑥③① |①--②|
④⑧⑦⑤ |③--④|
②口⑥① |⑤-⑥-|
⑧口⑤口 |⑦-⑧-|
64
口口③① |①--②|
④口口口 |③④--|
口②口①
口口口口

口口口口
口口口口
⑧⑪⑥⑨ |⑤⑥⑦⑧|
⑫⑦⑩⑤ |⑨⑩⑪⑫|
65
④③④③ |①-②-|
②①②① |③-④-|
口口口口
口口口口

口口口口
⑯⑮⑭⑬
⑫⑪⑩⑨ |⑤⑥⑦⑧⑨⑩|
⑧⑦⑥⑤ |⑪⑫⑬⑭⑮⑯|
66
②⑤口① |①--②|
口口口⑥ |③-④-|
⑦口④口 |⑤-⑥-|
口③口⑧ |⑦-⑧-|
67
⑧口①⑦ |①②③④|
④口⑤口 |⑤⑥⑦⑧|
口⑥③①
②口⑤口

口⑩口口
⑫⑨口⑨
口口口口 |⑨-⑩-|
⑪⑪口口 |⑪-⑫-|
68
⑧口①⑦ |①②③④|
口④⑤口 |⑤⑥⑦⑧|
②⑥口①
口口③⑤

口⑨⑫口
口口口⑨
⑪口⑪口 |⑨-⑩-|
⑩⑩口口 |⑪-⑫-|
69
口口口口 |①---|
口①①口 |---②③④|
口口口口
口④③②

口⑯⑮⑭
⑬⑫⑪⑩
⑨⑧⑦⑥ |⑤⑥⑦⑧⑨⑩|
⑤口口口 |⑪⑫⑬⑭⑮⑯|
70
①口口口 |①---|
口口口口 |--②③|
②③③② |④---|
口④④口 |----|
71
⑧口口口 |①②③④|
②⑥③⑤ |⑤⑥⑦⑧|
口口口口
④口⑦①

口⑬⑪⑨
口口口⑭
⑩⑬⑪⑨ |⑨-⑩⑪|
口口口⑫ |-⑫⑬⑭|
72
口口口口 |①--②|
①②③口 |--③-|
口口口口
①②③口

⑤口⑤口
口口口口
④⑦⑥口 |④⑤--|
⑦口口⑥ |⑥-⑦-|
73
口①口口 |①②③④|
③⑦⑧④ |⑤⑥⑦⑧|
口口口②
口⑤⑥口

⑨⑪⑬⑩
⑭口口口
⑨⑪⑬口 |⑨-⑩⑪|
⑫口口口 |-⑫⑬⑭|
74
⑤⑦⑥⑤ |①--②|
口③②① |--③-|
④⑦⑥口 |④⑤--|
口③②① |⑥-⑦-|
75
⑧口口口 |①②③④|
②⑥③⑤ |⑤⑥⑦⑧|
口口口口
④口⑦①

口⑬⑪⑨
口口口⑭
⑩⑬⑪⑨ |⑨-⑩⑪|
口口口⑫ |-⑫⑬⑭|
76
口口口口 |①--②|
①②③口 |--③-|
口口口口
①②③口

⑤口⑤口
口口口口
④⑦⑥口 |④⑤--|
⑦口口⑥ |⑥-⑦-|
77
口①口口 |①②③④|
③⑦⑧④ |⑤⑥⑦⑧|
口口口②
口⑤⑥口

⑨⑪⑬⑩
⑭口口口
⑨⑪⑬口 |⑨-⑩⑪|
⑫口口口 |-⑫⑬⑭|
78
⑤⑦⑥⑤ |①--②|
口③②① |--③-|
④⑦⑥口 |④⑤--|
口③②① |⑥-⑦-|
最終更新:2019年11月20日 18:28