アットウィキロゴ
Struggle [2]
Masayoshi Minoshima(ALR)

BASIC

Level: 3
BPM: 180
Notes: 198

1
口口口口 |----|
口口口口 |----|
口口口口 |----|
口口口口 |----|
2
口口口口 |----|
口口口口 |----|
口口口口 |----|
口口口口 |----|
3
口口口口 |①---|
口①①口 |----|
口①①口 |----|
口口口口 |----|
4
口口口口 |①---|
口口口口 |----|
口口口口 |②---|
口口②① |----|
5
口口口口 |①---|
口口口口 |----|
口口口口 |②---|
②①口口 |----|
6
口口口口 |①---|
口口口口 |----|
①②口口 |②---|
口口口口 |----|
7
口口口口 |①---|
口口口口 |----|
口口①② |②---|
口口口口 |----|
8
口口口口 |①---|
口口②① |----|
口口口口 |②---|
口口口口 |----|
9
口口口口 |①---|
②①口口 |----|
口口口口 |②---|
口口口口 |----|
10
口①①口 |①---|
口②②口 |----|
口口口口 |②---|
口口口口 |----|
11
口口口口 |①---|
口口口口 |----|
口①①口 |②---|
口②②口 |----|
12
口口口口 |①---|
口口口口 |----|
口口口口 |②---|
口口②① |----|
13
口口口口 |①---|
口口口口 |----|
口口口口 |②---|
②①口口 |----|
14
口口口口 |①---|
口口口口 |----|
①②口口 |②---|
口口口口 |----|
15
口口口口 |①---|
口口口口 |----|
口口①② |②---|
口口口口 |----|
16
口口口口 |①---|
口口②① |----|
口口口口 |②---|
口口口口 |----|
17
口口口口 |①---|
②①口口 |----|
口口口口 |②---|
口口口口 |----|
18
口①①口 |①---|
口②②口 |----|
口口口口 |②---|
口口口口 |----|
19
口口口口 |①---|
口口口口 |----|
口①①口 |②---|
口②②口 |----|
20
口口口口 |①---|
口口口口 |----|
①口口口 |----|
口口口口 |----|
21
口口口口 |①---|
口口口∨ |----|
口口口① |----|
口口口口 |----|
22
口口口口 |①---|
口口口口 |----|
口口口① |----|
①口口口 |----|
23
口口口口 |①---|
口口口口 |----|
口口口∨ |----|
口口口① |----|
24
口口口口 |①---|
①口口口 |----|
口口口口 |----|
口口口① |----|
25
口口口口 |①---|
口口口① |----|
口口口∧ |----|
口口口口 |----|
26
①口口口 |①---|
口口口① |----|
口口口口 |----|
口口口口 |----|
27
口口口① |①---|
口口口∧ |----|
口口口口 |----|
口口口口 |----|
28
口口口① |①---|
口口口口 |----|
①口口口 |----|
口口口口 |----|
29
口口口口 |①---|
口口∨∨ |----|
口口①① |----|
口口口口 |----|
30
口口口口 |①---|
口口口口 |----|
口口①① |----|
①口口口 |----|
31
口口口口 |①---|
口口口口 |----|
口口∨∨ |----|
口口①① |----|
32
口口口口 |①---|
①口口口 |----|
口口口口 |----|
口口①① |----|
33
口口口口 |①---|
口口①① |----|
口口∧∧ |----|
口口口口 |----|
34
①口口口 |①---|
口口①① |----|
口口口口 |----|
口口口口 |----|
35
口口①① |①---|
口口∧∧ |----|
口口口口 |----|
口口口口 |----|
36
口口①① |①---|
①②口口 |----|
口口口口 |②---|
口口口口 |----|
37
口口口口 |①---|
口口①口 |----|
口口口口 |----|
口口口口 |----|
38
口口口口 |①---|
口口口口 |----|
口口②① |②---|
口口口口 |----|
39
口口口口 |①---|
口口口口 |----|
口①口口 |----|
口口口口 |----|
40
口口口口 |①---|
口口口口 |----|
口①②口 |②---|
口口口口 |----|
41
口口口口 |①---|
口口口口 |----|
口口口① |----|
口口口口 |----|
42
口口口口 |①---|
口②①口 |----|
口口口口 |②---|
口口口口 |----|
43
口口口口 |①---|
①口口口 |----|
口口口口 |----|
口口口口 |----|
44
口②①口 |①---|
口口口口 |----|
口口口口 |②---|
口口口口 |----|
45
口口口口 |①---|
口②①口 |----|
口口口口 |②---|
口口口口 |----|
46
口口口口 |①---|
口口口口 |----|
口②①口 |②---|
口口口口 |----|
47
口口口口 |①---|
口口口口 |----|
口口口口 |②---|
口②①口 |----|
48
口口口口 |①---|
口口口口 |----|
口口口口 |②---|
②口口① |----|
49
口口口口 |①---|
口口口口 |----|
②口口① |②---|
口口口口 |----|
50
口口口口 |①---|
口①①口 |----|
口口口口 |----|
口口口口 |----|
51
口口口口 |①---|
口口口口 |----|
口①①口 |----|
口口口口 |----|
52
④口口口 |①---|
口口③口 |②---|
口口②口 |③---|
口口①口 |--④-|
53
口①①口 |--①-|
口②②口 |--②-|
口口口口 |----|
口口口口 |----|
54
口口口口 |①---|
①②③口 |②---|
口口口口 |③---|
口口口口 |----|
55
口口口口 |①---|
口口口口 |②---|
口①②口 |----|
口口口口 |----|
56
④口口口 |①---|
口口③口 |②---|
口口②口 |③---|
口口①口 |--④-|
57
口①①口 |--①-|
口②②口 |--②-|
口口口口 |----|
口口口口 |----|
58
口口口口 |①---|
①②③口 |②---|
口口口口 |③---|
口口口口 |----|
59
口口口口 |①---|
口口口口 |②---|
口①②口 |----|
口口口口 |----|
60
④口口口 |①---|
口口③口 |②---|
口口②口 |③---|
口口①口 |--④-|
61
口①①口 |--①-|
口②②口 |--②-|
口口口口 |----|
口口口口 |----|
62
④口口口 |①---|
口口③口 |②---|
口口②口 |③---|
口口①口 |--④-|
63
口①①口 |--①-|
口②②口 |--②-|
口口口口 |----|
口口口口 |----|
64
口口口口 |①---|
①口②口 |----|
口口口口 |②---|
口口口口 |----|
65
口口口口 |①---|
口口口口 |----|
口①口② |②---|
口口口口 |----|
66
口口口口 |①---|
口②口① |----|
口口口口 |②---|
口口口口 |----|
67
口口口口 |①---|
口口口口 |----|
②口①口 |②---|
口口口口 |----|
68
口∨∨口 |①---|
口||口 |----|
口||口 |----|
口①①口 |----|
69
口口口口 |----|
口口口口 |----|
口口口口 |----|
口①①口 |①---|
70
口口口口 |①---|
口口口口 |----|
①②口口 |②---|
口口口口 |----|
71
口口口口 |①---|
口口口口 |----|
口口①② |②---|
口口口口 |----|
72
口口口口 |①---|
口口②① |----|
口口口口 |②---|
口口口口 |----|
73
口口口口 |①---|
②①口口 |----|
口口口口 |②---|
口口口口 |----|
74
口①①口 |①---|
口②②口 |----|
口口口口 |②---|
口口口口 |----|
75
口口口口 |①---|
口口口口 |----|
口①①口 |②---|
口②②口 |----|
76
口口口口 |①---|
口口口口 |----|
口口口口 |②---|
口口②① |----|
77
口口口口 |①---|
口口口口 |----|
口口口口 |②---|
②①口口 |----|
78
口口口口 |①---|
口口口口 |----|
①②口口 |②---|
口口口口 |----|
79
口口口口 |①---|
口口口口 |----|
口口①② |②---|
口口口口 |----|
80
口口口口 |①---|
口口②① |----|
口口口口 |②---|
口口口口 |----|
81
口口口口 |①---|
②①口口 |----|
口口口口 |②---|
口口口口 |----|
82
口①①口 |①---|
口②②口 |----|
口口口口 |②---|
口口口口 |----|
83
口口口口 |①---|
口口口口 |----|
口①①口 |②---|
口②②口 |----|
84
口口口口 |①---|
口①①口 |----|
口①①口 |----|
口口口口 |----|
最終更新:2019年11月01日 21:32