アットウィキロゴ
Struggle [2]
Masayoshi Minoshima(ALR)

ADVANCED

Level: 6
BPM: 180
Notes: 372

1
口口口口 |----|
口口口口 |----|
口口口口 |----|
口口口口 |----|
2
口口口口 |----|
口口口口 |----|
口口口口 |----|
口口口口 |----|
3
口口口口 |①---|
口①①口 |----|
口①①口 |----|
口口口口 |----|
4
口口口① |①---|
口口口② |②---|
口口口③ |③---|
口口口④ |④---|
5
口③④口 |--①-|
口②口口 |--②-|
口口①口 |--③-|
口口口口 |④---|
6
①口口口 |①---|
②口口口 |②---|
③口口口 |③---|
④口口口 |④---|
7
口④③口 |--①-|
口口②口 |--②-|
口①口口 |--③-|
口口口口 |④---|
8
口口口① |①---|
口口口② |②---|
口口口③ |③---|
口口口④ |④---|
9
④口口③ |--①-|
口②口口 |--②-|
口口①口 |--③-|
口口口口 |④---|
10
口①①口 |①---|
口②②口 |----|
口口口口 |②---|
口口口口 |----|
11
口口口口 |①---|
口口口口 |----|
口①①口 |②---|
口②②口 |----|
12
①口口口 |①---|
②口口口 |②---|
③口口口 |③---|
④口口口 |④---|
13
口④③口 |--①-|
口口②口 |--②-|
口①口口 |--③-|
口口口口 |④---|
14
口口口① |①---|
口口口② |②---|
口口口③ |③---|
口口口④ |④---|
15
口③④口 |--①-|
口②口口 |--②-|
口口①口 |--③-|
口口口口 |④---|
16
①口口口 |①---|
②口口口 |②---|
③口口口 |③---|
④口口口 |④---|
17
③口口④ |--①-|
口口②口 |--②-|
口①口口 |--③-|
口口口口 |④---|
18
口①①口 |①---|
口②②口 |----|
口口口口 |②---|
口口口口 |----|
19
口口口口 |①---|
②③口口 |----|
口①①口 |②---|
口口口口 |③---|
20
口口口口 |①---|
口口口① |----|
口口口② |②---|
口口口口 |----|
21
口口口口 |①---|
②③口口 |----|
口口口口 |②---|
口>―① |③---|
22
口口口口 |①---|
口口口① |----|
口口口② |②---|
口口口① |----|
23
口口口口 |①---|
口口口口 |----|
②③口口 |②---|
口>―① |③---|
24
口口口口 |①---|
口口口② |----|
口口口① |②---|
口口口① |----|
25
口>―① |①---|
口口口口 |----|
②③口口 |②---|
口口口口 |③---|
26
口口口① |①---|
口口②口 |----|
口口①口 |②---|
口口口口 |----|
27
―①口 |①---|
口口口口 |----|
②③口口 |②---|
口口口口 |③---|
28
口口①口 |①---|
口口①口 |----|
口口②口 |②---|
口口口口 |----|
29
口口口口 |①---|
口口口口 |----|
②③口口 |②---|
―①口 |③---|
30
口口口口 |①---|
口口①口 |----|
口口②口 |②---|
口口①口 |----|
31
口口口口 |①---|
②③口口 |----|
口口口口 |②---|
―①口 |③---|
32
口口口口 |①---|
口口口② |----|
口口口① |②---|
口口①口 |----|
33
口>―① |①---|
②③口口 |----|
口口口口 |②---|
口口口口 |③---|
34
口口口① |①---|
口口②口 |----|
口口①口 |②---|
口口口口 |----|
35
―①口 |①---|
口口口口 |----|
口口口口 |----|
口口口口 |----|
36
口②①口 |①---|
①①③口 |----|
口口口口 |②---|
口口口口 |③---|
37
口口②② |①---|
口口口口 |----|
口①口口 |②---|
口口口口 |----|
38
口口口口 |①---|
口②①① |②---|
口口③口 |--③-|
口④口口 |--④-|
39
口②③口 |--①-|
口④⑤口 |②-③-|
①⑥口口 |④-⑤-|
口口口口 |⑥---|
40
口口口口 |①---|
口口②口 |----|
口③口口 |②---|
口口①① |③---|
41
口口口口 |①---|
口口口口 |----|
口口口口 |②---|
②②①口 |----|
42
口口口口 |①---|
①①②口 |②---|
口③口口 |--③-|
口口④口 |--④-|
43
口③②口 |--①-|
口⑤④口 |②-③-|
口口⑥① |④-⑤-|
口口口口 |⑥---|
44
口口口口 |①---|
口口口③ |②---|
②②④口 |③---|
①①口口 |④---|
45
口①口口 |①---|
口口口口 |----|
口口口口 |②---|
口②②口 |----|
46
口口口口 |①---|
②②口口 |②---|
①①③口 |--③-|
口④口口 |--④-|
47
口②③口 |--①-|
口④⑤口 |②-③-|
①⑥口口 |④-⑤-|
口口口口 |⑥---|
48
口口口口 |①---|
③口口口 |②---|
口④②② |③---|
口口①① |④---|
49
口口①口 |①---|
口③②口 |--②-|
口口口口 |③---|
口口口口 |----|
50
①口口① |①---|
②口口② |②---|
③口口③ |③---|
④口口④ |④---|
51
口⑧⑦口 |①-②-|
口⑥⑤口 |③-④-|
口④③口 |⑤-⑥-|
口②①口 |⑦-⑧-|
52
⑤口口⑤ |①---|
②口口① |②---|
②④④① |③---|
口③③口 |④-⑤-|
53
口②①口 |--①-|
⑥口③口 |②-③-|
⑤口口口 |--④-|
④口口口 |⑤-⑥-|
54
口口①口 |①---|
口②口口 |②---|
口口③口 |③---|
口④⑤口 |④-⑤-|
55
口口口口 |--①-|
③口⑥口 |②-③-|
②⑤④口 |--④-|
①口口口 |⑤-⑥-|
56
⑤口口⑤ |①---|
②口口① |②---|
②④④① |③---|
口③③口 |④-⑤-|
57
口②①口 |--①-|
⑥口③口 |②-③-|
⑤口口口 |--④-|
④口口口 |⑤-⑥-|
58
口口①口 |①---|
口②口口 |②---|
口口③口 |③---|
口④⑤口 |④-⑤-|
59
口口口口 |--①-|
③口⑥口 |②-③-|
②⑤④口 |--④-|
①口口口 |⑤-⑥-|
60
⑤口口⑤ |①---|
②口口① |②---|
②④④① |③---|
口③③口 |④-⑤-|
61
口②①口 |--①-|
口⑥③口 |②-③-|
口⑤口口 |--④-|
口④口口 |⑤-⑥-|
62
⑤口口⑤ |①---|
②口口① |②---|
②④④① |③---|
口③③口 |④-⑤-|
63
口②①口 |--①-|
⑥口③口 |②-③-|
⑤口口口 |--④-|
④口口口 |⑤-⑥-|
64
口>―① |①---|
口口口口 |----|
口口口口
口口口口

口口口②
口口口口
口口口口 |②---|
②口口口 |----|
65
①―<口 |①---|
口口口口 |----|
口口口口
口口口口

②口口口
口口口口
口口口口 |②---|
口口口② |----|
66
口口口口 |①---|
口口>① |----|
口口口口
口口口口

口口口口
②<口②
口口口口 |②---|
口口口口 |----|
67
口口口口 |①---|
①口口口 |----|
口口>①
口口口口

口口口口
口口口口
②<口② |②---|
口口口口 |----|
68
口∨∨口 |①---|
口||口 |----|
①||口 |----|
口①①口 |----|
69
口口口口 |----|
口口口口 |----|
口口口口 |----|
口①①口 |①---|
70
①口口口 |①---|
②口口口 |②---|
③口口口 |③---|
④口口口 |④---|
71
口④③口 |--①-|
口口②口 |--②-|
口①口口 |--③-|
口口口口 |④---|
72
口口口① |①---|
口口口② |②---|
口口口③ |③---|
口口口④ |④---|
73
④口口③ |--①-|
口②口口 |--②-|
口口①口 |--③-|
口口口口 |④---|
74
口①①口 |①---|
口②②口 |----|
口口口口 |②---|
口口口口 |----|
75
口口口口 |①---|
口口口口 |----|
口①①口 |②---|
口②②口 |----|
76
①口口① |①---|
②口口② |②---|
③口口③ |③---|
④口口④ |④---|
77
口④③口 |--①-|
口口②口 |--②-|
口①口口 |--③-|
口口口口 |④---|
78
①口口① |①---|
②口口② |②---|
③口口③ |③---|
④口口④ |④---|
79
口③④口 |--①-|
口②口口 |--②-|
口口①口 |--③-|
口口口口 |④---|
80
①口口① |①---|
②口口② |②---|
③口口③ |③---|
④口口④ |④---|
81
③口口④ |--①-|
口口②口 |--②-|
口①口口 |--③-|
口口口口 |④---|
82
口①①口 |①---|
口②②口 |----|
口口口口 |②---|
口口口口 |----|
83
口口口口 |①---|
口口口口 |----|
口①①口 |②---|
口②②口 |----|
84
口口口口 |①---|
①口口① |----|
①口口① |----|
口口口口 |----|
最終更新:2019年11月01日 21:32