アットウィキロゴ
Invisible Border
world sequence

ADVANCED

Level: 6
BPM: 156
Notes: 301

1
口口口口 |----|
口口口口 |----|
口口口口 |----|
口口口口 |----|
2
③口口口 |①---|
②③口口 |--②-|
①②口口 |----|
口①口口 |③---|
3
口口口∨ |①---|
口口口|
口口口①
口口口口

口口∨口
口口|口 |--②-|
口口②②
口口口口

口∨口口
口|口口
口③③口 |----|
口口口口 |③---|
4
口口口口 |----|
口口口① |----|
口①口口 |----|
口口口口 |--①-|
5
口口口口 |①-②-|
⑥⑦①口 |③-④-|
⑧口③② |⑤-⑥-|
口口⑤④ |⑦-⑧-|
6
口口口口 |①---|
口口口口
口①口口
口∧口口

口口口∨
口口口| |--②-|
口②口② |----|
口口口口 |----|
7
③口口口 |----|
口口口口 |--①-|
口②口① |②---|
口口①口 |③---|
8
口①口② |①---|
口口③④ |--②-|
口口⑤⑥ |③-④-|
口口口口 |⑤-⑥-|
9
口⑦⑥口 |①-②-|
②③⑧口 |③-④-|
④⑤口口 |⑤-⑥-|
口口①口 |⑦-⑧-|
10
①口口③ |①-②-|
②⑤口④ |--③-|
口口口口 |④---|
口口口口 |--⑤-|
11
口口口口 |①---|
口口②口 |--②-|
口①口口
口口口口

口口口口
口口口口
口④③口 |③---|
口口口口 |--④-|
12
口口口口 |①---|
口③口口 |②-③-|
口④④② |----|
口口①口 |④---|
13
口口口口 |----|
口口口口 |----|
口③④口 |①-②-|
口①②口 |③-④-|
14
口口口口 |①---|
口①口口 |----|
口口口口 |----|
口口口口 |----|
15
口口②口 |----|
口口口① |--①-|
口③口口 |②---|
口口口口 |③---|
16
口口口口 |①---|
⑥①①口 |--②-|
④口口⑤ |③-④-|
②口口③ |⑤-⑥-|
17
口口②口 |①---|
口③口① |--②-|
口口口口 |----|
口口口口 |③---|
18
①口口③ |①-②-|
②⑤口④ |--③-|
口口口口 |④---|
口口口口 |--⑤-|
19
口口口口 |①---|
口口②口 |--②-|
口①口口
口口口口

口口口口
口口口口
口④③口 |③---|
口口口口 |--④-|
20
口口口口 |①---|
口③口口 |②-③-|
口④④② |----|
口口①口 |④---|
21
口口口口 |----|
口口口口 |----|
口③④口 |①-②-|
口①②口 |③-④-|
22
口口口口 |①---|
口①口口 |----|
口口口口 |----|
口口口口 |----|
23
口口②口 |----|
口口口① |--①-|
口③口口 |②---|
口口口口 |③---|
24
口②②口 |①---|
口①①口 |----|
口口口口 |②---|
口口口口 |----|
25
②口口② |①---|
①口口① |----|
口口口口 |②---|
口口口口 |----|
26
口口口口 |①---|
口①①口 |----|
口||口 |----|
口∧∧口 |----|
27
①口口① |----|
口①①口 |----|
口口口口 |①---|
口口口口 |----|
28
口①①② |①---|
口口口口 |----|
口口口口 |②---|
口口口口 |----|
29
口口口口 |①---|
口>①口 |----|
口口口口 |----|
口口口口 |----|
30
口口口口 |①---|
口口①口 |----|
口①<口 |----|
口口口口 |----|
31
口③②口 |①---|
口①口口 |--②-|
口①口口 |----|
口口口口 |③---|
32
口口口口 |①---|
口口①口 |----|
口②口口 |②---|
口口口口 |----|
33
口口口口 |①---|
①口口口 |----|
②口口口 |②---|
口口口口 |----|
34
口口口口 |①---|
口∨∨口 |----|
口||口 |----|
口①①口 |----|
35
口口口口 |①---|
口口口口 |----|
口②②口 |②---|
①①①① |----|
36
口口口① |①---|
口口②口 |----|
口口口口 |②---|
口口口口 |----|
37
口口口口 |①---|
口口口口 |----|
口①口口 |②---|
②口口口 |----|
38
口口口口 |①---|
②口口② |----|
|口口| |②---|
∧①①∧ |----|
39
口口口口 |----|
①口口① |----|
口①①口 |①---|
口口口口 |----|
40
②②①① |①---|
④④③③ |②---|
口口口口 |③---|
口口口口 |④---|
41
口口口口 |①---|
口口口口 |②---|
②②①① |③---|
④④③③ |④---|
42
②②①① |①---|
④④③③ |②---|
口口口口 |③---|
口口口口 |④---|
43
口口口口 |①---|
④口口④ |②---|
②②①① |③---|
口③③口 |④---|
44
口①①口 |①---|
口||口 |----|
口∧∧口 |----|
口口口口 |----|
45
①①①① |----|
口口口口 |----|
口口口口 |①---|
口口口口 |----|
46
口口口口 |①---|
①①< |----|
口口口口 |----|
口口口口 |----|
47
口①②口 |----|
口①①口 |----|
口口口口 |①---|
口口口口 |②---|
48
口口口① |①---|
口口口| |----|
口口口∧ |----|
口口口口 |----|
49
口口口① |----|
口②①口 |----|
口口口口 |①---|
口口口口 |②---|
50
口口口口 |①---|
①口口口 |----|
|口口口 |----|
∧口口口 |----|
51
口口口口 |①---|
①口口③ |----|
口①口② |②---|
口口口口 |③---|
52
――① |①---|
口口口口 |----|
口口口口 |----|
口口口口 |----|
53
口口口① |----|
口口①口 |----|
口口口口 |①---|
口口口口 |----|
54
①口口口 |①---|
|口口口 |----|
|口口口 |----|
∧口口口 |----|
55
①口口口 |----|
口①口口 |----|
口口②口 |①---|
口口口口 |②---|
56
口口口④ |①---|
口口口③ |②---|
口口口② |③---|
口①―< |④---|
57
口口口口 |----|
口口①口 |①---|
口②②口 |②---|
口②口口 |----|
58
口口口口 |①---|
∨口口口 |----|
|口口口 |----|
①口口口 |----|
59
口口口口 |①---|
口③③口 |----|
口②②口 |②---|
①①口口 |③---|
60
①③②① |①---|
|口④| |②---|
∧口口∧ |③---|
口口口口 |④---|
61
②②②② |①---|
口①口口 |----|
口口口口 |②---|
口口口口 |----|
62
口口口口 |①---|
①③②① |②---|
|口④| |③---|
∧口口∧ |④---|
63
口口口口 |①---|
②②②② |----|
口①口口 |②---|
口③③口 |③---|
64
口口口口 |①---|
口口口口 |②---|
①③②① |③---|
∧口④∧ |④---|
65
口口口口 |①---|
口③③口 |----|
②②②② |②---|
口①口口 |③---|
66
①<>① |①---|
口口口口 |----|
口口口口 |----|
口口口口 |----|
67
①口③① |①---|
口②口口 |----|
口①①口 |②---|
口口口口 |③---|
68
口口口① |①---|
口④口| |②---|
口③口∧ |③---|
口②口口 |④---|
69
口①口② |①---|
口②②口 |----|
口口口口 |②---|
口口口口 |----|
70
∨口口② |①---|
|口口③ |②---|
①口口④ |③---|
口口口口 |④---|
71
口口口口 |①---|
口②②口 |----|
②口口口 |②---|
口③③① |③---|
72
口口口口 |①---|
①③②① |②---|
|口④| |③---|
∧口口∧ |④---|
73
口口口口 |①---|
②口口② |----|
口①口口 |②---|
口②②口 |----|
74
口口口口 |①---|
①①< |----|
口口口口 |----|
口口口口 |----|
75
口口口口 |----|
口口口口 |----|
口口口口 |----|
口口口口 |----|
76
①口口① |①---|
|①①| |----|
|口口| |----|
∧口口∧ |----|
77
①①①① |----|
口②②口 |----|
口口口口 |----|
口口口口 |①-②-|
最終更新:2019年11月01日 21:37