アットウィキロゴ
BLACK or WHITE?
BlackYooh vs. siromaru

BASIC

Level: 5
BPM: 185
Notes: 350

1
口口口口 |----|
口口口口 |----|
口口口口 |----|
口口口口 |----|
2
口口口口 |①---|
口口口口 |----|
口口口口 |②---|
口口②① |----|
3
口口口口 |①---|
口口口口 |----|
口口口口 |②---|
②①口口 |----|
4
口口口口 |①---|
口口口口 |----|
①②口口 |②---|
口口口口 |----|
5
口口口口 |①---|
口口口口 |----|
口口①② |②---|
口口口口 |----|
6
口口口口 |①---|
口口②① |----|
口口口口 |②---|
口口口口 |----|
7
口口口口 |①---|
②①口口 |----|
口口口口 |②---|
口口口口 |----|
8
①①< |①-|
口口口口
口口口口
口口口口

口②②口 |②-|
口口口口 |③-|
③③<
口口口口

口口口口
⑤⑤< |④-|
口④④口 |⑤-|
口口口口

口口口口
口⑥⑥口
口口口口 |⑥-|
⑦⑦< |⑦-|

口口口口
口口口口
口口口口
口⑧⑧口 |⑧-|
9
∨口口∨ |----|
①口口① |①---|
①口口①
∧口口∧

口口口口
②口口②
②口口② |----|
口口口口 |②---|
10
口口口① |①---|
口口②口 |----|
口口口口 |②---|
口口口口 |----|
11
口口口口 |①---|
口口口口 |----|
口①口口 |②---|
②口口口 |----|
12
①口口口 |①---|
口②口口 |----|
口口口口 |②---|
口口口口 |----|
13
口口口口 |①---|
口口口口 |----|
口口①口 |②---|
口口口② |----|
14
口口口口 |----|
口口②口 |①---|
口①①口 |----|
口口口口 |②---|
15
口口口口 |----|
②口口口 |①---|
口①口口 |----|
口口口口 |②---|
16
口口口口 |----|
口①口口 |①---|
口口②口 |----|
口口口口 |②---|
17
口②②口 |----|
口③③① |①---|
口口口口 |②---|
口口口口 |③---|
18
口口③③ |①---|
口口口口 |②---|
口①②② |----|
口口口口 |③---|
19
①①口口 |----|
口口口口 |①---|
②②口口 |----|
口口口口 |②---|
20
口口②② |----|
口口口口 |①---|
口口①① |----|
口口口口 |②---|
21
①①口口 |----|
口口口口 |①---|
②②口口 |----|
口口口口 |②---|
22
口口口口 |①---|
①②③④ |②---|
口口口口 |③---|
口口口口 |④---|
23
口口口口 |①---|
口口口口 |②---|
④③②① |③---|
口口口口 |④---|
24
口口口口 |①---|
口口口口 |②---|
口口口口 |③---|
①②③④ |④---|
25
口口口口 |①---|
口口口口 |②---|
④③②① |③---|
口口口口 |④---|
26
口∨∨口 |①---|
口①①口 |----|
口口口口 |----|
口口口口 |----|
27
口口口口 |----|
口口口口 |----|
口口口口 |----|
口口口口 |----|
28
口口口口 |----|
口口口口 |----|
口口口口 |----|
口口口口 |----|
29
口口口口 |----|
口口口口 |----|
口口口口 |----|
口口口口 |----|
30
口口口口 |①---|
口①①口 |----|
口口口口 |----|
口口口口 |----|
31
口口口口 |①---|
口口口口 |----|
口口①口 |----|
口口口口 |----|
32
口口口口 |①---|
口口口口 |----|
口①口口 |----|
口口口口 |----|
33
口口口口 |①---|
口口口口 |----|
口口口口 |----|
口口①口 |----|
34
口口口口 |①---|
口口口② |②---|
口①①③ |③---|
口口口④ |④---|
35
口口④口 |①---|
口口③口 |②---|
口口②口 |③---|
口口①口 |④---|
36
口①口口 |①---|
口②口口 |②---|
口③口口 |③---|
口④口口 |④---|
37
④口口口 |①---|
③口口口 |②---|
②口口口 |③---|
①口口口 |④---|
38
口①口口 |①---|
口②口口 |②---|
口③口口 |③---|
口④口口 |④---|
39
口口④口 |①---|
口口③口 |②---|
口口②口 |③---|
口口①口 |④---|
40
口口口① |①---|
口口口② |②---|
口口口③ |③---|
口口口④ |④---|
41
口口口口 |①---|
口∨∨口 |----|
口①①口
口口口口

口口口口
口口口口
口②②口 |----|
口口口口 |②---|
42
口口口口 |①---|
口口③口 |----|
口口口② |②---|
口①①口 |③---|
43
口①口口 |①---|
口②口口 |②---|
口③口口 |③---|
口④口口 |④---|
44
口口口口 |①---|
口③口口 |----|
②口口口 |②---|
口口①① |③---|
45
②②①① |①---|
④④③③ |②---|
口口口口 |③---|
口口口口 |④---|
46
口口口口 |①---|
口口③② |----|
口①①口 |②---|
口口口口 |③---|
47
①口口口 |①---|
②口口口 |②---|
③口口口 |③---|
④口口口 |④---|
48
口口口口 |①---|
口③口口 |----|
②口口口 |②---|
口①①口 |③---|
49
②②①① |①---|
④④③③ |②---|
口口口口 |③---|
口口口口 |④---|
50
口口口口 |①---|
口口③② |----|
口①①口 |②---|
口口口口 |③---|
51
口①口口 |①---|
口②口口 |②---|
口③口口 |③---|
口④口口 |④---|
52
③口口③ |----|
②口口② |①---|
①口口① |②---|
口口口口 |③---|
53
③②①③ |①---|
口①②口 |--②-|
口口口口 |----|
口口口口 |③---|
54
口口口口 |①---|
口口②② |----|
口①①口 |②---|
口口口口 |----|
55
口口口口 |①---|
①①口口 |----|
口②②口 |②---|
口口口口 |----|
56
口①①② |①---|
口口口③ |②---|
口口口口 |③---|
口口口口 |----|
57
①①口口 |①---|
②②口口 |②---|
③③口口 |③---|
④④口口 |④---|
58
口口口口 |①---|
口口口∨ |----|
口口口| |----|
口口口① |----|
59
口口口口 |----|
口口口口 |----|
口口口口 |----|
口口口口 |----|
60
口口口口 |----|
口口口口 |----|
口口口口 |----|
口口口口 |----|
61
口口口口 |----|
口口口口 |----|
口口口口 |----|
口口口口 |----|
62
口口口口 |①---|
口口口口 |----|
口口口口 |----|
①口口① |----|
63
口口口口 |①---|
口口口口 |----|
口口①口 |----|
口口口口 |----|
64
口口口口 |①---|
口口口口 |----|
口①口口 |----|
口口口口 |----|
65
口口口口 |①---|
口口①口 |----|
口口口口 |----|
口口口口 |----|
66
口④④口 |①---|
口口②② |②---|
③口口口 |③---|
口①口口 |④---|
67
①口口① |①---|
②口口② |②---|
③口口③ |③---|
④口口④ |④---|
68
口④④口 |①---|
②②口口 |②---|
口口口③ |③---|
口口①口 |④---|
69
①口口① |①---|
∧口口∧
口口口口
口口口口

②口口②
口口口口 |②---|
③口口③ |③---|
∧口口∧

口口口口
口口口口
④口口④
口口口口 |④---|
70
口口口口 |①---|
④③②① |②---|
口口口口 |③---|
口口口口 |④---|
71
口口口口 |①---|
口口口口 |②---|
①②③④ |③---|
口口口口 |④---|
72
口口口口 |①---|
口口口口 |②---|
口口口口 |③---|
④③②① |④---|
73
口口口口 |①---|
口口口口 |②---|
①②③④ |③---|
口口口口 |④---|
74
口口③② |①---|
口①①口 |----|
口口口口 |②---|
口口口口 |③---|
75
①口口口 |①---|
口②口口 |②---|
口口③口 |③---|
口口口④ |④---|
76
口口口口 |①---|
口②①口 |②---|
口④③口 |③---|
口口口口 |④---|
77
口口口口 |①---|
②②①① |②---|
④④③③ |③---|
口口口口 |④---|
78
口口③③ |①---|
口④②口 |②---|
口口口口 |③---|
口①①口 |④---|
79
①①口口 |①---|
口口②口 |②---|
口口③口 |③---|
口口④口 |④---|
80
口④口口 |①---|
口③口口 |②---|
口②口口 |③---|
口①口口 |④---|
81
口口①口 |①---|
口口②口 |②---|
口口③口 |③---|
口口④口 |④---|
82
口口口口 |①---|
口口③口 |②---|
①口④口 |③---|
口②口口 |④---|
83
口口口口 |①---|
④④口口 |②---|
③③口① |③---|
口口②口 |④---|
84
④④②② |①---|
口口口口 |②---|
口③①口 |③---|
口口口口 |④---|
85
口口口口 |①---|
③③①① |②---|
④④②② |③---|
口口口口 |④---|
86
口口口口 |①---|
口口口口 |②---|
口④②口 |③---|
口③①口 |④---|
87
口口口口 |①---|
④口口② |②---|
③口口① |③---|
口口口口 |④---|
88
口①①口 |①---|
口②②口 |②---|
口③③口 |③---|
口④④口 |④---|
89
①口口① |①---|
②口口② |②---|
③口口③ |③---|
④口口④ |④---|
90
口∨∨口 |----|
口||口 |①---|
口①①口 |----|
口口口口 |----|
91
口口口口 |----|
口口口口 |----|
口口口口 |----|
口口口口 |----|
92
口口口口 |----|
口口口口 |----|
口口口口 |----|
口口口口 |----|
93
口口口口 |----|
口口口口 |----|
口口口口 |----|
口口口口 |----|
94
口口口口 |①---|
口口口口 |----|
口①①口 |----|
口口口口 |----|
最終更新:2019年11月01日 21:37