アットウィキロゴ
ペンパイナッポーアッポーペン
ピコ太郎

ADVANCED

Level: 6
BPM: 136
Notes: 137

1
口口口口 |----|
口口口口 |----|
口口口口 |----|
口口口口 |----|
2
口口口口 |①---|
①口口② |②---|
③口口④ |③---|
口口口口 |④---|
3
③口口③ |①---|
口口口口 |②---|
口②②口 |③---|
口①①口 |----|
4
②④②④ |①---|
口口口口 |②---|
口③①口 |③---|
口口口口 |④---|
5
②④②④ |①---|
口口口口 |②---|
口③①口 |③---|
口口口口 |④---|
6
②④②④ |①---|
口口口口 |②---|
口③①口 |③---|
口口口口 |④---|
7
②口②口 |①---|
口口口口 |②---|
口口①口 |----|
口口口口 |----|
8
口口口口 |--①-|
③口口口 |②-③-|
②口④④ |④---|
①口口口 |----|
9
口口口口 |--①-|
③口④④ |②-③-|
②口⑤⑤ |④-⑤-|
①口口口 |----|
10
口口口口 |----|
①①< |----|
口口口口 |①|
口口口口

口口口口
口②②口
口口口口 |②--|
口口口口 |----|
11
口口口口 |①-②-|
口口口口 |--③-|
口口①① |----|
口③②② |----|
12
口口口口 |--①-|
③口口口 |②-③-|
②口④④ |④---|
①口口口 |----|
13
口口口口 |--①-|
口口③③ |②-③-|
②口④④ |④-⑤-|
①口⑤⑤ |----|
14
口口口口 |----|
口口口口 |----|
①①< |①|
口口口口

口口口口
口口口口
口②②口 |②--|
口口口口 |----|
15
①①口口 |①-②-|
②②④口 |③-④-|
③③口口 |----|
口口口口 |----|
16
口口口口 |①-②-|
口口口口 |--③-|
口口①① |----|
口③②② |----|
17
①①口口 |①-②-|
②②④口 |③-④-|
③③口口 |----|
口口口口 |----|
18
口口口口 |----|
口口口口 |----|
①①< |①|
口口口口

口口口口
口口口口
口②②口 |②--|
口口口口 |----|
19
②②口口 |①-②-|
③③①口 |③-④-|
④④⑤⑤ |⑤-⑥-|
口⑦⑥⑥ |⑦---|
20
口口口口 |①---|
①②③④ |②---|
口口口口 |③---|
口口口口 |④---|
21
口③⑤口 |①---|
口②④口 |②-③-|
口口口口 |--④-|
口①①口 |⑤---|
22
③口口③ |①---|
②口口② |②---|
①口口① |③---|
口口口口 |----|
23
②②口口 |①-②-|
③③①口 |③-④-|
④④⑤⑤ |⑤-⑥-|
口⑦⑥⑥ |⑦---|
24
口①①口 |①---|
口①①口 |----|
口①口口 |----|
口口口口 |----|
最終更新:2019年11月01日 21:39