アットウィキロゴ
ペンパイナッポーアッポーペン
ピコ太郎

EXTREME

Level: 8
BPM: 136
Notes: 227

1
口口口口 |----|
口口口口 |----|
口口口口 |----|
口口口口 |----|
2
①口口⑧ |①-②-|
⑥口口④ |③-④-|
③口口⑤ |⑤-⑥-|
⑦口口② |⑦-⑧-|
3
口口口⑥ |①---|
⑤口①② |②---|
②①口④ |③-④-|
③口口口 |⑤-⑥-|
4
①②④口 |①-②-|
口口③口 |③-④-|
⑤⑥⑧口 |⑤-⑥-|
口口⑦口 |⑦-⑧-|
5
口口口④ |①-②-|
①②口③ |③-④-|
口口口⑧ |⑤-⑥-|
⑤⑥口⑦ |⑦-⑧-|
6
①②口③ |①-②-|
口口口④ |③-④-|
⑤⑥口⑦ |⑤-⑥-|
口口口⑧ |⑦-⑧-|
7
口口③口 |①-②-|
①②④口 |③-④-|
口口口口 |----|
口口口口 |----|
8
④④口口 |--①-|
④④口③ |②-③-|
④口口② |④---|
口⑤口① |⑤---|
9
口口口口 |--①-|
口口口③ |②-③-|
口④口② |④-⑤-|
④⑤④① |----|
10
③③< |①---|
口①口② |②---|
②口①口 |③|
口口口口

口④④口
口口口口
口口口口 |④--|
口口口口

口口口⑤
⑤口口口
口口口口
口口口口 |⑤---|
11
③③口口 |①-②-|
③③口口 |--③-|
③①口口
①②①口

口口口口
口口口⑤
口④口口 |--④-|
⑤口④口 |⑤---|
12
④④口口 |--①-|
④④口③ |②-③-|
④口口② |④---|
口口⑤① |⑤---|
13
口口③③ |--①-|
口口③③ |②-③-|
②口③⑤ |④-⑤-|
①口⑥④ |⑥---|
14
口①口② |①---|
②口①口 |②---|
口口口口 |③|
③③<

⑤口口口
口口口口
⑤口口口 |④--|
口④④口 |⑤---|
15
④④①① |①-②-|
④④①① |③-④-|
④口①③
口口口②

口口⑥口
口口口口
口口⑤口 |--⑤-|
口口口口 |⑥---|
16
③③口口 |①-②-|
③③口口 |--③-|
③①口口
①②①口

口口口口
口口口口
口口口口 |④---|
⑤口⑤④ |⑤---|
17
④④①① |①-②-|
④④①① |③-④-|
④口①③
口口口②

口口口口
口口口口
口⑥⑥口 |⑤---|
口⑤口口 |⑥---|
18
①口①口 |①---|
口②口② |②---|
口口口口 |③|
③③<

口口口口
口口口口
口口口口 |④--|
口④④口 |----|
19
①①②② |①-②-|
①①②② |③-④-|
①口②④
口口口③

⑦⑦口口
⑦⑦口口
⑦⑤口口 |⑤-⑥-|
⑤⑥⑤口 |⑦---|
20
口口⑤② |①-②-|
口口⑥① |③-④-|
⑦⑧口口 |⑤-⑥-|
③④口口 |⑦-⑧-|
21
⑦⑧口口 |①-②-|
③④口口 |③-④-|
口口⑤① |⑤-⑥-|
口口⑥② |⑦-⑧-|
22
口口口口 |①-②-|
①②口口 |③-④-|
③④口⑦ |⑤-⑥-|
⑤⑥口口 |⑦---|
23
①①②② |①-②-|
①①②② |③-④-|
①口②④
口口口③

⑦⑦口口
⑦⑦口口
⑦⑤口口 |⑤-⑥-|
⑤⑥⑤口 |⑦---|
24
口口口口 |①---|
口口口① |----|
口口口口 |----|
口口口口 |----|
最終更新:2019年11月01日 21:39