アットウィキロゴ
Hollywood Galaxy
dj TAKA

EXTREME

Level: 10.3
BPM: 186
Notes(hold): 701(38)

1
口口口口 |----|
口口口口 |----|
口口口口 |----|
口口口口 |----|
2
口④口口 |①---|
口口⑤③ |②-③-|
口口②口 |--④-|
①⑥口口 |⑤-⑥-|
3
口口④口 |①---|
③⑤口口 |②-③-|
口②口口 |--④-|
口口⑥① |⑤-⑥-|
4
口④口口 |①---|
口口⑤③ |②-③-|
口口②口 |--④-|
①⑥口口 |⑤-⑥-|
5
①口口⑤ |①-②-|
口②⑥口 |③-④-|
口⑦③口 |⑤-⑥-|
⑧口口④ |⑦-⑧-|
6
④口⑤口 |①-②-|
⑥③口口 |③-④-|
口口②口 |--⑤-|
口口①⑦ |⑥-⑦-|
7
口⑤口④ |①-②-|
口口③⑥ |③-④-|
口②口口 |--⑤-|
⑦①口口 |⑥-⑦-|
8
④口⑤口 |①-②-|
⑥③口口 |③-④-|
口口②口 |--⑤-|
口口①⑦ |⑥-⑦-|
9
口口⑤① |①-②-|
口⑥②口 |③-④-|
⑦③口④ |⑤-⑥-|
口口⑧口 |⑦-⑧-|
10
口④口口 |①---|
口口⑤③ |②-③-|
口口②口 |--④-|
①⑥口① |⑤-⑥-|
11
口口④口 |①---|
③⑤口口 |②-③-|
口②口口 |--④-|
口口⑥① |⑤-⑥-|
12
口④口口 |①---|
口口⑤③ |②-③-|
口口②口 |--④-|
①⑥口口 |⑤-⑥-|
13
①口口⑤ |①-②-|
口②⑥口 |③-④-|
口⑦③口 |⑤-⑥-|
⑧口口④ |⑦-⑧-|
14
④口⑤口 |①-②-|
⑥③口口 |③-④-|
口口②口 |--⑤-|
口口①⑦ |⑥-⑦-|
15
口⑤口④ |①-②-|
口口③⑥ |③-④-|
口②口口 |--⑤-|
⑦①口口 |⑥-⑦-|
16
④口⑤口 |①-②-|
⑥③口口 |③-④-|
口口②口 |--⑤-|
口口①⑦ |⑥-⑦-|
17
口口⑤① |①-②-|
口⑥②口 |③-④-|
⑦③口④ |⑤-⑥-|
口口⑧口 |⑦-⑧-|
18
口口口口 |----|
口口口口 |----|
口口口口 |----|
口口口口 |----|
19
④口①口 |①-②-|
⑧口口⑦ |③-④⑤|
口②③口 |--⑥-|
⑥⑤口口 |⑦-⑧-|
20
口①口④ |①-②-|
⑦口口⑧ |③-④⑤|
口③②口 |--⑥-|
口口⑤⑥ |⑦-⑧-|
21
④口①口 |①-②-|
⑧口口⑦ |③-④⑤|
口②③口 |--⑥-|
⑥⑤口口 |⑦-⑧-|
22
口①口④ |①-②-|
⑦口口⑧ |③-④⑤|
口③②口 |--⑥-|
口口⑤⑥ |⑦-⑧-|
23
④口①口 |①-②-|
⑧口口⑦ |③-④⑤|
口②③口 |--⑥-|
⑥⑤口口 |⑦-⑧-|
24
口①口④ |①-②-|
⑦口口⑧ |③-④⑤|
口③②口 |--⑥-|
口口⑤⑥ |⑦-⑧-|
25
④口①口 |①-②-|
⑧口口⑦ |③-④⑤|
口②③口 |--⑥-|
⑥⑤口口 |⑦-⑧-|
26
口①口④ |①-②-|
⑦口口⑧ |③-④⑤|
口③②口 |--⑥-|
口口⑤⑥ |⑦-⑧-|
27
口口①⑥ |①-②-|
口④⑦口 |③-④⑤|
∨②③⑧ |--⑥-|
①口⑤口 |⑦-⑧-|
28
口⑦①⑥ |①-②-|
口④口⑧ |③-④⑤|
口②③口 |--⑥-|
口口⑤口 |⑦-⑧-|
29
口口口口 |①-②-|
①口④口 |③-④⑤|
口③②∨
①⑤口①

⑥口口口
口口口口
⑦口口⑧ |--⑥-|
口口口口 |⑦-⑧-|
30
口⑦口⑥ |①-②-|
∨④口① |③-④⑤|
|②③⑧ |--⑥-|
①口⑤① |⑦-⑧-|
31
⑥口口口 |①-②-|
①⑦④∨ |③-④⑤|
⑧③②| |--⑥-|
①⑤口① |⑦-⑧-|
32
⑥①口口 |①-②-|
口⑦④口 |③-④⑤|
⑧③②口 |--⑥-|
口⑤口口 |⑦-⑧-|
33
⑥①口口 |①-②-|
口⑦④口 |③-④⑤|
⑧③②口 |--⑥-|
口⑤口口 |⑦-⑧-|
34
口口口口 |①---|
口口口口 |----|
口口口口
①口①①

口口②③
口口④⑤
口口⑥⑦ |②③④⑤|
口口⑧⑨ |⑥⑦⑧⑨|
35
⑨口口⑥ |①②③④|
①②口口 |⑤---|
③④口口 |⑥-⑦-|
⑤⑦⑧口 |⑧-⑨-|
36
口⑥⑨口 |①②③④|
口口②① |⑤---|
口口④③ |⑥-⑦-|
口⑧⑦⑤ |⑧-⑨-|
37
⑨口口⑥ |①②③④|
①②口口 |⑤---|
③④口口 |⑥-⑦-|
⑤⑦⑧口 |⑧-⑨-|
38
⑩⑨⑧⑦ |①②③④|
口口②① |⑤---|
口口④③ |⑥---|
⑥口口⑤ |⑦⑧⑨⑩|
39
口口口口 |①②③④|
口②①口 |⑤---|
口④③口 |----|
口口⑤口 |----|
40
⑤⑬⑥⑭ |①②③④|
⑨①⑩② |⑤⑥⑦⑧|
⑦⑮⑧⑯ |⑨⑩⑪⑫|
⑪③⑫④ |⑬⑭⑮⑯|
41
②口口口 |①-②-|
口⑥口⑧ |③-④-|
⑤口③口 |⑤-⑥-|
口①⑦④ |⑦-⑧-|
42
口⑧①口 |①②③④|
②口⑤口 |⑤⑥⑦⑧|
口④③口
⑥口口⑦

⑫口⑭⑨
口口口口
口口口⑪ |⑨⑩⑪⑫|
口⑩⑬口 |⑬-⑭-|
43
⑨口口⑥ |①②③④|
①②口口 |⑤---|
③④口口 |⑥-⑦-|
⑤⑦⑧口 |⑧-⑨-|
44
口⑥⑨口 |①②③④|
口口②① |⑤---|
口口④③ |⑥-⑦-|
口⑧⑦⑤ |⑧-⑨-|
45
⑨口口⑥ |①②③④|
①②口口 |⑤---|
③④口口 |⑥-⑦-|
⑤⑦⑧口 |⑧-⑨-|
46
⑩⑨⑧⑦ |①②③④|
口口②① |⑤---|
口口④③ |⑥---|
⑥口口⑤ |⑦⑧⑨⑩|
47
口口口口 |①②③④|
口②①口 |⑤---|
口④③口 |----|
口口⑤口 |----|
48
⑤⑬⑥⑭ |①②③④|
⑨①⑩② |⑤⑥⑦⑧|
⑦⑮⑧⑯ |⑨⑩⑪⑫|
⑪③⑫④ |⑬⑭⑮⑯|
49
②口口口 |①-②-|
口口口① |③-④-|
口口③口
口①口④

口口口口
口⑥口⑧
⑤口口口 |⑤-⑥-|
⑤口⑦口 |⑦-⑧-|
50
口⑧⑤① |①②③④|
②口口口 |⑤⑥⑦⑧|
口④口③
⑥口口⑦

⑫口口口
⑯口⑪⑮
⑭口⑨口 |⑨⑩⑪⑫|
口⑩⑬口 |⑬⑭⑮⑯|
51
>――① |①---|
口②口口 |②-③-|
口③口① |----|
口口口口 |----|
52
①口口① |①---|
①――< |②-③-|
口口②口 |----|
口口③口 |----|
53
>―①口 |①---|
①口口口 |②-③-|
口②口①
口③口口

口口④口
口④⑤口
口口⑥口 |④---|
④―<口 |⑤-⑥-|
54
②>―① |①---|
③口口口 |②-③-|
口口口①
①口口口

口⑥口④
口口口⑤
⑤口口⑥ |--④-|
口④口口 |⑤-⑥-|
55
>―①口 |①---|
口②①口 |②-③-|
口③口口 |----|
口口口口 |----|
56
①①①口 |①---|
口|口口 |②-③-|
口|②口 |----|
口∧③口 |----|
57
口①①口 |①---|
口口口口
>――①
口口口口

口口口口
口④―< |②-③-|
口②⑤④ |④---|
④③⑥口 |⑤-⑥-|
58
⑤⑧⑦① |①-②-|
①①②③ |③-④-|
⑦④⑥口 |⑤-⑥-|
口③口⑤ |⑦-⑧-|
59
>――① |①---|
口②口口 |②-③-|
口③口① |----|
④④口口 |④---|
60
①口口① |①---|
①――< |②-③-|
口口②口
口口③口

口口口口
口口④④
口口口口 |----|
口口口口 |④---|
61
>―①口 |①---|
①口口口 |②-③-|
口②口①
口③口口

口口④口
口④⑤口
口口⑥口 |④---|
④―<口 |⑤-⑥-|
62
②>―① |①---|
③口口口 |②-③-|
口口口①
①口口口

口口口④
口口口口
④口口口 |----|
口④口口 |④---|
63
>―①口 |①---|
④②①口 |②-③-|
④③口口 |----|
口口口口 |④---|
64
①①①口 |①---|
口|口口 |②-③-|
口|②④ |----|
口∧③④ |④---|
65
口①口口 |①---|
>――① |②-③-|
②口口口 |----|
③口④口 |④---|
66
口①口① |①---|
口①①① |----|
口①口① |----|
口口口口 |----|
67
口口①④ |①---|
②口口① |②-③-|
③⑤口口 |--④-|
口口口⑥ |⑤-⑥-|
68
①⑨②口 |①②③④|
③⑤④⑩ |⑤⑥⑦⑧|
⑦⑪⑥口 |⑨-⑩-|
口口⑧⑫ |⑪-⑫-|
69
①―<口 |①-②-|
口口口口
口口口②
口口口口

④口口口
>―④口 |③-④-|
口口③口
口口口口

口口口⑤
口⑥⑦⑧
口口口口 |⑤-⑥-|
口⑦―< |⑦-⑧-|
70
口口口∨ |①-|
口口口|
①口口|
口①口①

口⑥④口 |②-|
③口口口 |③-④-|
口⑧⑦② |⑤-⑥-|
⑤⑩⑨口 |⑦⑧⑨⑩|
71
①口口⑤ |①---|
口①口② |②-③-|
口⑥口③ |--④-|
④口口① |⑤-⑥-|
72
①口②口 |①②③④|
③⑤④口 |⑤⑥⑦⑧|
⑦口⑥口
口口⑧口

⑫⑨口口
口口口⑪
口口口口 |⑨-⑩-|
口口口⑩ |⑪-⑫-|
73
口口口口 |①-②-|
口口②口
口>―①
口口口口

口④―<
口口口口 |③-④-|
口口口④
③口口口

口⑦∨口
口⑦|⑧
口口⑦口 |⑤-⑥-|
口⑤⑥口 |⑦-⑧-|
74
口口②① |①-②-|
口口④| |③-④-|
③口①|
口口口∧

口⑥口口
口口口口
口口⑧口 |⑤-⑥-|
⑤⑦口口 |⑦-⑧-|
75
口口口① |①-|
>――①
口口口口
口口口口

⑤口口口 |②-|
口②口口 |③-④-|
③⑥⑦口 |⑤-⑥-|
⑧口④口 |⑦-⑧-|
76
口①―< |①-②-|
口口口①
口口口②
口口口口

⑧⑤口③
>―⑤口 |③-④-|
口⑥口口 |⑤-⑥-|
口⑦口④ |⑦-⑧-|
77
口口口口 |①-②-|
∨口①口 |③-④-|
|口④②
①口③口

⑦>―⑤
⑥口口口
口口口口 |⑤-⑥-|
⑤⑧口口 |⑦-⑧-|
78
口口口① |①-②-|
口口②口
口①―<
口口口口

口口⑧口
⑦③口⑤ |③-④-|
口⑥口④ |⑤-⑥-|
口口⑥口 |⑦-⑧-|
79
①①口⑥ |①-②-|
|⑤②口 |③-④-|
|⑦④⑧ |⑤-⑥-|
∧③口口 |⑦-⑧-|
80
①口∨口 |①-②-|
口④|口 |③-④-|
③口|口
②口①口

口口口口
⑤――<
口口⑥口 |⑤-⑥-|
口口⑤口

口口口口
口口口⑧
口⑦口口
口口口口 |⑦-⑧-|
81
口①③② |①-②-|
①口口口 |--③-|
口口口口
口①③②

④口口口
⑥⑤⑥⑤
⑤⑥⑤⑥ |④---|
④口口口 |⑤-⑥-|
82
口⑨⑤① |----|
口⑩⑥② |----|
口⑪⑦③ |----①②③④|
口⑫⑧④ |⑤⑥⑦⑧⑨⑩⑪⑫|
83
口口口口 |①---|
①口口口 |----|
①口口口 |----|
口口口口 |----|
最終更新:2019年11月29日 16:54