アットウィキロゴ
The Omen
RoughSketch

ADVANCED

Level: 9
BPM: 185
Notes: 586

1
口口口口 |----|
口口口口 |----|
口口口口 |----|
口口口口 |----|
2
口口口口 |①---|
口②口① |----|
口口口口 |②---|
口①口② |----|
3
②口口② |①---|
口口口口 |--②-|
口口口口 |----|
口口①口 |----|
4
口口口口 |①---|
①口②口 |----|
口口口口 |②---|
②口①口 |----|
5
②口口② |①---|
口口口口 |--②-|
口口口口 |----|
口①口口 |----|
6
口口口口 |①---|
口②口① |----|
口口口口 |②---|
口①口② |----|
7
②口口② |①---|
口口口口 |--②-|
口口口口 |----|
口口①口 |----|
8
口口口口 |①---|
①口②口 |----|
口口口口 |②---|
②口①口 |----|
9
②口口② |①---|
口口口口 |--②-|
口口口口 |----|
口①口口 |----|
10
口∨∨口 |①---|
口||口 |----|
②||口 |----|
口①①口 |②---|
11
口口口口 |①---|
口口口口 |----|
口口口① |----|
口口口口 |----|
12
口口口口 |①---|
口口口口 |----|
①口口① |----|
口①①口 |----|
13
口⑦⑧口 |①-②-|
口⑤⑥口 |③-④-|
口③④口 |⑤-⑥-|
口①②口 |⑦-⑧-|
14
∨口口∨ |①---|
|口口| |----|
|口口| |----|
①口口① |----|
15
口口口口 |----|
口口口口 |----|
口口口口 |----|
口口口口 |----|
16
口口口口 |①---|
口口口口 |----|
口①①口 |----|
①口口① |----|
17
口①①口 |①---|
口||口 |----|
口||口 |----|
口∧∧口 |----|
18
口口口口 |----|
口口口口 |----|
口口口口 |----|
口口口口 |----|
19
口①①口 |----|
口口口口 |----|
口口口口 |①---|
口口口口 |----|
20
①口口② |①-②-|
③口口④ |③-④-|
⑤口口⑥ |⑤-⑥-|
⑦口口⑧ |⑦-⑧-|
21
口①①口 |①-②-|
口②②口 |----|
口口口口
口口口口

口⑤⑤口
③口口③
④口口④ |③-④-|
口口口口 |--⑤-|
22
②④④② |①---|
口口口口 |②---|
口口口口 |③---|
口③①口 |④---|
23
②口口② |①---|
⑦⑧⑨⑩ |②---|
⑥⑤④③ |③④⑤⑥|
口口口① |⑦⑧⑨⑩|
24
口①口① |----|
口口口口 |----|
口口口口 |①---|
口口口口 |----|
25
①③①③ |①---|
②④②④ |②---|
口⑤口⑤ |③-④-|
口⑥口⑥ |⑤-⑥-|
26
②③②③ |①---|
口口口口 |②---|
口口口口 |----|
口口①口 |③---|
27
口口∨口 |①-②-|
②口|① |③-④-|
④口|③ |⑤---|
口口⑤口

口⑥口口
口口口口
口口口口
口口⑥口 |⑥---|
28
③口①口 |①---|
口③口① |②---|
④口②口 |③---|
口④口② |④---|
29
口③口① |①---|
③口①口 |②---|
口④口② |③---|
④口②口 |④---|
30
口④口② |①---|
③口①口 |②---|
④口②口 |③---|
口③口① |④---|
31
口口②口 |①---|
∨∨口① |②---|
||口② |③---|
③③①口 |----|
32
③口口① |①---|
④③①② |②---|
口④②口 |③---|
①①口口 |④---|
33
口③①口 |①---|
口④②口 |②---|
③口口① |③---|
④口口② |④---|
34
③⑦⑤① |①-②-|
③⑦⑤① |③-④-|
口口口口 |⑤-⑥-|
⑥②④⑧ |⑦-⑧-|
35
②口口① |①---|
口口口口 |②---|
口③③口 |③---|
口①②口 |----|
36
②∨∨② |①---|
③||③ |--②-|
①||① |--③-|
口④④口 |--④-|
37
口口口口 |----|
口口口口 |----|
口口口口 |①---|
口①①口 |----|
38
口④④口 |①---|
①||① |--②-|
③||③ |--③-|
②∧∧② |--④-|
39
口①①口 |----|
口口口口 |----|
口口口口 |①---|
口口口口 |----|
40
②∨∨② |①---|
③||③ |--②-|
①||① |--③-|
口④④口 |--④-|
41
口口口口 |----|
口口口口 |----|
口口口口 |①---|
口①①口 |----|
42
③口口③ |①---|
①口口① |--②-|
②口口② |--③-|
口④④口 |--④-|
43
③①①③ |--①-|
口口口口 |-②--|
④②②④ |③--④|
口⑤⑤口 |--⑤-|
44
口口口口 |----|
口口口口 |----|
口口口口 |----|
口口口口 |----|
45
口①口① |①---|
口口②口 |----|
口③口口 |----|
口口口口 |②-③-|
46
②口口③ |①---|
口口口口 |②---|
口口口口 |③---|
①口④口 |④---|
47
④①①④ |①---|
∨②口∨ |②-③-|
|口③| |--④-|
⑤口口⑤ |--⑤-|
48
口口口口 |----|
口口口口 |----|
口口口口 |----|
①口口① |①---|
49
①①口口 |①---|
口②口口 |----|
口口③口 |----|
口口口口 |②-③-|
50
③口口② |①---|
口口口口 |②---|
口口口口 |③---|
口④口① |④---|
51
口口口口 |①-②-|
④口口口 |③-④-|
②⑥口③ |----|
口口⑤① |⑤-⑥-|
52
口⑥⑤口 |①-②-|
口②⑦③ |--③-|
④口①口 |④-⑤-|
口口口口 |⑥-⑦-|
53
①口口① |①---|
③口口口 |②--③|
口口口口
②口口②

⑥⑥口口
口口⑤口
口④口口 |-④-⑤|
口口口口 |--⑥-|
54
口口①① |①---|
④口口④ |②-③-|
口⑤⑤口 |-④--|
②②③③ |⑤---|
55
①口口① |①---|
③口口口 |②--③|
口口口口
②口口②

⑥⑥口口
口口⑤口
口④口口 |-④-⑤|
口口口口 |--⑥-|
56
口口①① |①---|
口⑦⑥口 |②-③-|
口⑤④口 |④-⑤-|
口③②口 |⑥-⑦-|
57
―①口 |①---|
口口口口 |----|
口口口口 |----|
口口口口 |----|
58
口口口口 |----|
口口口口 |----|
口口口口 |----|
口口口口 |----|
59
口口①口 |①②③④|
口口口口 |⑤⑥⑦⑧|
⑤⑥⑦⑧
①②③④

⑬⑭⑮⑯
⑨⑩⑪⑫
口口口口 |⑨⑩⑪⑫|
口口口口 |⑬⑭⑮⑯|
60
口口口口 |①---|
∨∨口口 |----|
||口口
①①口口

口口⑤⑨
口口④⑧
口口③⑦ |②③④⑤|
②②②⑥ |⑥⑦⑧⑨|
61
①口口口 |①-②-|
②口④口 |③--④|
③口口口
口口口口

⑧⑧口口
口口口⑦
口口⑥口 |--⑤⑥|
口⑤口口 |⑦-⑧-|
62
⑨⑨①口 |①-②-|
③口口⑧ |③④⑤-|
口④⑦② |--⑥⑦|
口⑥⑤口 |⑧-⑨-|
63
⑫⑪⑩⑨ |①-②③|
④③②口 |④-⑤-|
口⑥⑦⑧ |⑥⑦⑧-|
⑤口口① |⑨⑩⑪⑫|
64
口⑦口口 |①-②③|
④⑦①⑥ |-④-⑤|
④口⑤⑥ |-⑥-⑦|
口③⑤② |----|
65
①口口口 |①-②-|
②口④口 |③--④|
③口口口
口口口口

⑧⑧口口
口口口⑦
口口⑥口 |--⑤⑥|
口⑤口口 |⑦-⑧-|
66
⑨⑨口② |①-②-|
③口口⑧ |③④⑤-|
口④⑦口 |--⑥⑦|
①⑥⑤口 |⑧-⑨-|
67
⑫⑪⑩⑨ |①-②③|
④③②口 |④-⑤-|
口⑥⑦⑧ |⑥⑦⑧-|
⑤口口① |⑨⑩⑪⑫|
68
口⑦口口 |①-②③|
④⑦①⑥ |-④-⑤|
④口⑤⑥ |-⑥-⑦|
口③⑤② |----|
69
②口口② |①-②-|
口⑥⑤口 |③-④-|
口⑧⑦口 |⑤-⑥-|
①④③① |⑦-⑧-|
70
②②①① |①-②-|
⑧⑥⑤⑧ |③-④-|
⑥口口⑤ |⑤-⑥-|
⑦④③⑦ |⑦-⑧-|
71
③①①③ |①-②-|
口⑧④口 |③--④|
⑦②②⑦ |-⑤⑥-|
口⑥⑤口 |⑦--⑧|
72
口⑤④口 |-①②-|
③口口③ |③-④⑤|
口②①口 |----|
口口口口 |----|
73
⑪⑩⑨⑧ |①-②-|
口⑦⑦口 |③④⑤⑥|
⑥⑤④③ |⑦---|
②口口① |⑧⑨⑩⑪|
74
口口口口 |①---|
②口口② |②---|
⑥口口④ |③-④-|
⑤①①③ |⑤-⑥-|
75
④③②① |①②③④|
⑧⑦⑥⑤ |⑤⑥⑦⑧|
⑫⑪⑩⑨ |⑨⑩⑪⑫|
⑯⑮⑭⑬ |⑬⑭⑮⑯|
76
口①①口 |①---|
口口口口 |----|
口口口口 |----|
口口口口 |----|
77
①口口① |①---|
口口口口 |②---|
④③②口 |③---|
口④③② |④---|
78
口①②口 |①---|
①②口口 |②---|
口口口口
口口口口

口口口③
⑤口③④
⑤口口④ |③---|
口口口口 |④-⑤-|
79
③①②④ |①---|
口口口口 |②---|
口②①口 |③---|
口④③口 |④---|
80
口⑥⑥口 |①-②-|
①⑤⑤① |③---|
②④④② |④-⑤-|
③口口③ |⑥---|
81
③口口③ |①-②-|
①⑤④② |③---|
口口⑤④ |④---|
口①②口 |⑤---|
82
口口口口 |①---|
①口口② |②---|
口①口口
口口口②

口口口口
口④③口
口⑤⑤口 |③---|
口④③口 |④-⑤-|
83
①③③② |①-②-|
①口口② |③---|
口⑤⑤口 |④---|
④口口④ |⑤---|
84
③⑤⑤④ |①-②-|
⑥③④⑥ |③-④-|
①⑦⑦② |⑤-⑥-|
⑧①②⑧ |⑦-⑧-|
85
口口口口 |①---|
口口口口 |----|
①口口① |----|
口①①口 |----|
最終更新:2019年11月01日 21:44