アットウィキロゴ
Girl A
[Alexandros]

EXTREME

Level: 9
BPM: 135
Notes: 641

1
口口口口 |----|
口口口口 |----|
口口口口 |----|
口口口口 |----|
2
口④口⑧ |①-②-|
②口⑥口 |③-④-|
口⑤①口 |⑤-⑥-|
⑦口口③ |⑦-⑧-|
3
⑤③口⑦ |①---|
口口口口 |②-③-|
口⑥④② |④-⑤-|
口①①口 |⑥-⑦-|
4
⑤③口⑦ |①---|
口口口口 |②-③-|
口⑥④② |④-⑤-|
口①①口 |⑥-⑦-|
5
⑤③口⑦ |①---|
口口口口 |②-③-|
口⑥④② |④-⑤-|
口①①口 |⑥-⑦-|
6
⑤③口⑦ |①---|
口口口口 |②-③-|
口⑥④② |④-⑤-|
口①①口 |⑥-⑦-|
7
⑤口口口 |①-②③|
口①口口 |-④-⑤|
口口②口
口④③口

口⑨口⑥
口⑦口⑫
口口⑩口 |-⑥⑦⑧|
⑪口口⑧ |⑨⑩⑪⑫|
8
口口口口 |①-②③|
②口④口 |-④⑤-|
口口口口
口③①⑤

口⑥口⑥
口口口口
口口⑥口 |⑥---|
口口⑦口 |--⑦-|
9
口口⑤口 |①-②③|
口①口口 |-④-⑤|
②口口口
③口口④

⑧口口⑨
口⑫口口
口⑩口⑦ |-⑥⑦⑧|
口⑥⑪口 |⑨⑩⑪⑫|
10
口口口口 |①-②③|
④口②口 |-④⑤-|
口口口口
①⑤口③

口⑥口⑥
口口口口
口口⑥口 |⑥---|
⑦口口口 |--⑦-|
11
⑧口⑤⑦ |①-②③|
口①口⑫ |-④-⑤|
⑥⑪②⑨ |-⑥⑦⑧|
⑩口③④ |⑨⑩⑪⑫|
12
⑥口⑥口 |①-②③|
②口④口 |-④⑤-|
⑦⑥口口 |⑥---|
口③①⑤ |--⑦-|
13
⑤口口① |①-②③|
口口②口 |-④-⑤|
口口③口
④口口口

口⑪⑧口
⑨口口⑫
口口⑩⑥ |-⑥⑦⑧|
口⑦口口 |⑨⑩⑪⑫|
14
口口④口 |①-②③|
口②口口 |--④-|
口口口口
③④①口

口⑦口口
⑤口⑥⑦
⑦⑥口⑤ |⑤--⑥|
口口⑦口 |--⑦-|
15
口口①③ |①---|
口口③口 |②-③-|
口口口口
②②口口

④口⑦口
⑦④口口
口口⑥⑦ |④-⑤-|
口⑦⑤⑤ |⑥-⑦-|
16
⑤①⑥口 |①---|
⑥③④口 |②-③-|
口④③⑥ |④--⑤|
②⑥口⑤ |--⑥-|
17
③①口② |①---|
口③②口 |②-③-|
口口口口
口口口口

口⑦口口
口口口⑦
⑦⑥④④ |④-⑤-|
⑤⑤⑦口 |⑥-⑦-|
18
②⑤口① |①---|
口口口④ |②-③-|
⑥③口口 |④-⑤-|
口⑦口⑦ |⑥-⑦-|
19
①口③① |①---|
口口口③ |②-③-|
口②口口
②口口口

口口口口
④⑥⑦口
口⑦⑥口 |④-⑤-|
口⑤⑤口 |⑥-⑦-|
20
②②⑦① |①---|
⑦⑤⑤④ |②-③-|
口⑥⑥⑦ |④--⑤|
口⑦③③ |⑥-⑦-|
21
②①口口 |①---|
口口口口 |②-③-|
口③口口
口口口口

口⑤口口
口口口④
口口口⑦ |④-⑤-|
⑥口口口 |⑥-⑦-|
22
口⑥①③ |①---|
②④⑤⑥ |②-③-|
⑥⑤④口 |④--⑤|
③口⑥口 |--⑥-|
23
口口①③ |①---|
口口③口 |②-③-|
口口口口
②②口口

④口⑦口
⑦口口口
口口⑥⑦ |④-⑤-|
口⑦⑤⑤ |⑥-⑦-|
24
⑤①⑥口 |①---|
⑥③④口 |②-③-|
口④③⑥ |④--⑤|
②⑥口⑤ |--⑥-|
25
③①口② |①---|
口③②口 |②-③-|
口口口口
口口口口

口⑦口口
口口口⑦
⑦⑥④④ |④-⑤-|
⑤⑤⑦口 |⑥-⑦-|
26
②⑤口① |①---|
口口口④ |②-③-|
⑥③口口 |④-⑤-|
口⑦⑦口 |⑥-⑦-|
27
①③口① |①---|
口口②口 |②-③-|
口②口③
口口口口

口口口⑦
口⑥口口
口⑦⑥口 |④-⑤-|
④⑤口口 |⑥-⑦-|
28
①口②口 |①---|
口口口③ |②-③-|
②口口口
口③口口

⑤口口口
口⑥口口
口⑥④⑦ |④-⑤-|
口口口⑦ |⑥-⑦-|
29
口②口② |①-②-|
③口③口 |③-④-|
④口④口
①口口口

⑦口口口
口口口⑥
口口口口 |⑤-⑥-|
⑧⑤口口 |⑦-⑧-|
30
⑯②①⑮ |①②③④|
⑭④③⑬ |⑤⑥⑦⑧|
⑫⑥⑤⑪ |⑨⑩⑪⑫|
⑩⑧⑦⑨ |⑬⑭⑮⑯|
31
口④口口 |①---|
口口①口 |②---|
④口④口 |③---|
②口口③ |④---|
32
口④④口 |①---|
③⑤⑤口 |②---|
口⑥⑥② |③---|
①⑦⑦口 |④⑤⑥⑦--|
33
口口④口 |①---|
口口口① |②---|
口④口④ |③---|
②口口③ |④---|
34
口④⑤⑤ |①②③④|
口口①口 |--⑤-|
②口口口
⑤⑤③口

⑥⑧口口
⑥口⑦⑧
⑧⑦口⑥ |⑥--⑦|
口口⑧⑥ |--⑧-|
35
口口①③ |①---|
口口③口 |②-③-|
口口口口
②②口口

④口⑦口
⑦④口口
口口⑥⑦ |④-⑤-|
口⑦⑤⑤ |⑥-⑦-|
36
⑥①⑦口 |①-②-|
⑦④⑤口 |③-④-|
②⑤④⑦ |⑤--⑥|
口⑦③⑥ |--⑦-|
37
③①口② |①---|
口③②口 |②-③-|
口口口口
口口口口

口⑦口口
口口口⑦
⑦⑥口口 |④-⑤-|
⑤⑤⑦④ |⑥-⑦-|
38
口⑤⑦① |①-②-|
②口口口 |③-④-|
⑥口口④ |⑤-⑥-|
⑧③口⑧ |⑦-⑧-|
39
①口③① |①---|
②口口③ |②-③-|
口②口口
口口口口

口④口口
口⑥⑥口
口⑦⑦口 |④-⑤-|
口⑤⑤口 |⑥-⑦-|
40
①④口① |①-②-|
口④口口 |③-④-|
②口口③
口口口③

⑧口⑥口
口口⑥⑧
⑧⑦口口 |⑤-⑥-|
口⑦⑤⑧ |⑦--⑧|
41
④口③口 |----|
口口⑥口 |①-②-|
口⑤口② |③-④-|
①口口口 |⑤-⑥-|
42
口①口④ |①-②-|
口口口口 |③-④-|
②口口口
④口口③

口⑦口口
口⑤⑥⑦
⑦⑥⑤口 |⑤--⑥|
口口⑦口 |--⑦-|
43
口口①③ |①---|
口口③口 |②-③-|
口口口口
②②口口

④口⑦口
⑦口口口
口口⑥⑦ |④-⑤-|
口⑦⑤⑤ |⑥-⑦-|
44
⑥①⑦口 |①-②-|
⑦④⑤口 |③-④-|
②⑤④⑦ |⑤--⑥|
口⑦③⑥ |--⑦-|
45
③①口口 |①---|
口③②② |②-③-|
口口口口
口口口口

口⑦口口
口口口⑦
⑦⑥④④ |④-⑤-|
⑤⑤⑦口 |⑥-⑦-|
46
口口①口 |①-②-|
②口口口 |③-④-|
口口口④
口③口口

口⑤⑦口
口口口口
⑥口口口 |⑤-⑥-|
⑧口口⑧ |⑦-⑧-|
47
①口③① |①---|
⑥②口⑤ |②-③-|
③口②口 |④-⑤-|
口⑦⑦④ |⑥-⑦-|
48
①口②① |①---|
口口②口 |②-③-|
③口口口
③口口口

⑤口口口
口口口⑥
口⑦口⑥ |④-⑤-|
口⑦口④ |⑥-⑦-|
49
口②口② |①-②-|
③口③口 |③-④-|
④口④口
口口①口

口⑦口口
口口口⑥
口口口口 |⑤-⑥-|
⑧⑤口口 |⑦-⑧-|
50
口口口① |①②③-|
口口②口 |④⑤-⑥|
④③口⑥
口⑤口口

口⑨⑧口
口⑪⑩口
口⑬⑫口 |⑦-⑧⑨|
口口⑦口 |⑩⑪⑫⑬|
51
①口口① |①---|
口④口口 |②---|
口口③口 |③---|
口口口② |④---|
52
口②口⑦ |①②③④|
④⑧①口 |⑤⑥⑦⑧|
口口口③
⑥口⑤口

口⑭⑪口
口口口口
⑩⑫口⑬ |⑨⑩⑪⑫|
口⑯⑮⑨ |⑬⑭⑮⑯|
53
①口口① |①---|
口口④口 |②---|
口③口口 |③---|
②口口口 |④---|
54
④⑧口① |①②③④|
口②⑦⑤ |⑤⑥⑦⑧|
⑥口口口
口口③口

口口⑬口
⑫口口口
口⑭口⑪ |⑨⑩⑪⑫|
⑩⑯⑮⑨ |⑬⑭⑮⑯|
55
①口口① |①---|
口口②口 |②---|
口③口口 |③---|
④口口口 |④---|
56
③⑦⑤① |①②-③|
⑥④②⑧ |④-⑤⑥|
⑥④②⑧ |-⑦⑧-|
⑨⑩⑪⑫ |⑨⑩⑪⑫|
57
①口口① |①---|
口②口口 |②---|
口口③口 |③---|
口口口④ |④---|
58
口⑥①口 |①②③④|
口④口⑦ |⑤⑥⑦⑧|
口口口③
⑧②⑤口

⑭口口⑬
口⑯⑨口
口⑩⑮口 |⑨⑩⑪⑫|
口⑫口⑪ |⑬⑭⑮⑯|
59
口口口口 |①---|
①口口① |----|
①口口① |----|
口口口口 |----|
最終更新:2019年11月01日 21:58