アットウィキロゴ
マホロバケーション
ももいろクローバーZ

BASIC

Level: 4
BPM: 145
Notes: 284

1
口口口口 |----|
口口口口 |----|
口口口口 |----|
口口口口 |----|
2
口口口口 |----|
口口口口 |----|
口口口口 |----|
口口口口 |----|
3
口口口口 |①---|
口①①口 |----|
口口口口 |----|
口口口口 |----|
4
口口口口 |①---|
口口口口 |----|
口①①口 |----|
口口口口 |----|
5
口口口口 |①---|
①口口① |----|
口口口口 |----|
口口口口 |----|
6
口口口口 |①---|
口口口口 |----|
①口口① |----|
口口口口 |----|
7
口口口① |①---|
口口口② |②---|
口口口③ |③---|
口口口④ |④---|
8
口口口口 |①---|
口②②口 |----|
口①①口 |②---|
口口口口 |----|
9
①口口口 |①---|
②口口口 |②---|
③口口口 |③---|
④口口口 |④---|
10
口口③口 |①---|
口②口口 |----|
口①①口 |②---|
口口口口 |③---|
11
口口口① |①---|
口口口② |②---|
口口口③ |③---|
口口口④ |④---|
12
口③口口 |①---|
口口②口 |----|
口①①口 |②---|
口口口口 |③---|
13
①口口口 |①---|
②口口口 |②---|
③口口口 |③---|
④口口口 |④---|
14
口口口③ |①---|
口②②口 |----|
口①①口 |②---|
口口口口 |③---|
15
口①①口 |①---|
口②②口 |----|
口口口口 |②---|
口口口口 |----|
16
①②③④ |①---|
口口口口 |②---|
口口口口 |③---|
口口口口 |④---|
17
口②②口 |①---|
口①①口 |----|
口口口口 |②---|
口口口口 |----|
18
①②③④ |①---|
口口口口 |②---|
口口口口 |③---|
口口口口 |④---|
19
口口口口 |①---|
口③②① |②---|
口口口口 |③---|
口口口口 |----|
20
口口口口 |①---|
口③③口 |②---|
口①②口 |----|
口口口口 |③---|
21
①②③口 |①---|
口口口口 |②---|
口口口口 |③---|
口口口口 |----|
22
口口口口 |①---|
口③②① |②---|
口④④口 |③---|
口口口口 |④---|
23
口口口口 |①---|
③口口① |②---|
④口口② |③---|
口口口口 |④---|
24
口①①口 |①---|
口②②口 |②---|
口③③口 |③---|
口④④口 |④---|
25
口口口口 |①---|
③口口① |②---|
④口口② |③---|
口口口口 |④---|
26
口①①口 |①---|
口口口口 |----|
口口口口 |----|
口口口口 |----|
27
④③③④ |①---|
②②①① |--②-|
口口口口 |--③-|
口口口口 |--④-|
28
口口口口 |----|
口口口口 |----|
口口口口 |----|
口口口口 |----|
29
口口口口 |①---|
口口口① |----|
口口②口 |②---|
口口口口 |----|
30
口口口口 |①---|
口①口口 |----|
②口口口 |②---|
口口口口 |----|
31
口口口口 |①---|
①口口口 |----|
口②口口 |②---|
口口口口 |----|
32
口口口口 |①---|
口口①口 |----|
口口口② |②---|
口口口口 |----|
33
口口口口 |①---|
口口口① |----|
口口②口 |②---|
口口口口 |----|
34
口口口口 |①---|
口①口口 |----|
②口口口 |②---|
口口口口 |----|
35
口口口口 |①---|
口①①口 |----|
口②②口 |②---|
口口口口 |----|
36
口口口口 |①---|
①口口① |----|
②口口② |②---|
口口口口 |----|
37
口口口口 |①---|
口①①口 |----|
口②②口 |②---|
口口口口 |----|
38
口口口口 |①---|
③③③③ |②---|
②口口② |③---|
①口口① |----|
39
口口口口 |----|
口口口口 |----|
口②②口 |①---|
口①①口 |②---|
40
口口口口 |①---|
口口口① |②--③|
口④④② |----|
口③③口 |④---|
41
口口口口 |①---|
①口口口 |②--③|
②④④口 |----|
口③③口 |④---|
42
口口口口 |①---|
口④④① |②--③|
口口口② |----|
口③③口 |④---|
43
②②①① |①---|
口④④口 |②--③|
口③③口 |----|
口口口口 |④---|
44
口口口① |①---|
口④④② |②--③|
口③③口 |----|
口口口口 |④---|
45
①③③口 |①---|
②④④口 |②---|
口口口口 |③---|
口口口口 |④---|
46
①口口① |①---|
口口口口 |----|
口口口口 |----|
口口口口 |----|
47
口③③口 |①---|
口口①口 |②---|
口②口口 |③---|
口口口口 |----|
48
口口口口 |①---|
口口口① |②--③|
口④④② |----|
口③③口 |④---|
49
口口口口 |①---|
①口口口 |②--③|
②④④口 |----|
口③③口 |④---|
50
口口口口 |①---|
口④④① |②--③|
口口口② |----|
口③③口 |④---|
51
②②①① |①---|
口④④口 |②--③|
口③③口 |----|
口口口口 |④---|
52
口口口① |①---|
口④④② |②--③|
口③③口 |----|
口口口口 |④---|
53
①③③口 |①---|
②④④口 |②---|
口口口口 |③---|
口口口口 |④---|
54
①口口① |①---|
口口口口 |----|
口口口口 |----|
口口口口 |----|
55
④③③④ |①---|
口口①口 |②---|
口②口口 |③---|
口口口口 |④---|
56
口口口口 |①---|
②②①① |----|
口口口口 |②---|
口口口口 |----|
57
口口口口 |①---|
口口口口 |----|
②②①① |②---|
口口口口 |----|
58
口口口口 |①---|
口口口口 |----|
②②①① |②---|
口口口口 |----|
59
口口口口 |①---|
口口口口 |----|
口口口口 |②---|
②②①① |----|
60
口口口口 |①---|
口口口口 |----|
②②①① |②---|
口口口口 |----|
61
口口口口 |①---|
口口口口 |----|
口口口口 |②---|
②②①① |----|
62
③③③③ |①---|
口口口口 |----|
②②①① |②---|
口口口口 |--③-|
63
口口口口 |--①-|
①①①① |--②-|
②②②② |----|
口口口口 |----|
64
口口口口 |①---|
口口口口 |----|
口口口口 |②---|
①②口口 |----|
65
口口口口 |①---|
口口口口 |----|
口口口口 |②---|
口口①② |----|
66
口口口口 |①---|
口口口口 |----|
口口②① |②---|
口口口口 |----|
67
口口口口 |①---|
口口口口 |----|
②①口口 |②---|
口口口口 |----|
68
口口口口 |①---|
①②口口 |----|
口口口口 |②---|
口口口口 |----|
69
口口口口 |①---|
口口①② |----|
口口口口 |②---|
口口口口 |----|
70
口口②① |①---|
口口口口 |----|
口口口口 |②---|
口口口口 |----|
71
②②②② |①---|
口①①口 |----|
口口口口 |----|
口口口口 |②---|
最終更新:2019年11月01日 22:06