アットウィキロゴ
今夜はパジャマパーティ
日向美ビタースイーツ♪

BASIC

Level: 3
BPM: 148
Notes: 205

1
口口口口 |----|
口口口口 |----|
口口口口 |----|
口口口口 |----|
2
口口口口 |①-②-|
口②②口 |----|
口①①口 |----|
口口口口 |----|
3
①口口② |①---|
口口口口 |②---|
口口口口 |----|
口口口口 |----|
4
口口口口 |①-②-|
口②②口 |----|
口①①口 |----|
口口口口 |----|
5
①口口② |①---|
口口口口 |②---|
口口口口 |----|
口口口口 |----|
6
口口口口 |①---|
口口口口 |----|
口②①口 |②---|
口口口口 |----|
7
∨口口口 |①---|
|口口口 |----|
①口口口 |----|
口口口口 |----|
8
口口口口 |①---|
口口口② |----|
①口口① |②---|
口口口口 |----|
9
口口口口 |①---|
口②②口 |----|
口①①口 |②---|
口口口口 |----|
10
②①①② |①---|
口口口口 |----|
口口口口 |②---|
口口口口 |----|
11
口口口口 |①---|
①②口口 |----|
口口口口 |②---|
口口口口 |----|
12
口口口口 |①---|
口口②① |----|
口口口口 |②---|
口口口口 |----|
13
口口口口 |①---|
口口口口 |----|
①②口口 |②---|
口口口口 |----|
14
口口口口 |①---|
口口口口 |----|
口口②① |②---|
口口口口 |----|
15
口口口口 |①---|
①②口口 |----|
口口口口 |②---|
口口口口 |----|
16
口口口口 |①---|
口口②① |----|
口口口口 |②---|
口口口口 |----|
17
口口口口 |①---|
口口口口 |----|
口①①口 |----|
口口口口 |----|
18
口口口口 |----|
口口口口 |----|
口口口口 |----|
口口口口 |----|
19
口口口③ |①---|
口口口② |②---|
口口口① |③---|
口口口口 |----|
20
③口口口 |①---|
②口口口 |②---|
①口口口 |③---|
口口口口 |----|
21
口口③口 |①---|
口口②口 |②---|
口口①口 |③---|
口口口口 |----|
22
口③口口 |①---|
口②口口 |②---|
口①口口 |③---|
口口口口 |----|
23
口口口口 |①---|
口口口口 |②---|
口口口口 |③---|
③②①口 |----|
24
口口口口 |①---|
口口口口 |②---|
口口口口 |③---|
口①②③ |----|
25
口口口口 |①---|
口②①口 |②---|
口④③口 |③---|
口口口口 |④---|
26
口口口口 |①---|
①<>① |----|
口口口口
口口口口

口口口口
②口口②
口口口口 |②---|
口口口口 |----|
27
口口口口 |①---|
口口口口 |----|
口②口口 |②---|
口口①口 |----|
28
口②口口 |①---|
口口①口 |----|
口口口口 |②---|
口口口口 |----|
29
口口①口 |①---|
口②口口 |----|
口口口口 |②---|
口口口口 |----|
30
口口口口 |①---|
口口口口 |----|
口口①口 |②---|
口②口口 |----|
31
口口口③ |①---|
口口口② |②---|
口口口① |③---|
口口口口 |----|
32
③口口口 |①---|
②口口口 |②---|
①口口口 |③---|
口口口口 |----|
33
口口口③ |①---|
口④④② |②---|
口||① |③---|
口∧∧口 |④---|
34
口口口口 |----|
口口口口 |----|
口口口口 |----|
口口口口 |----|
35
口口口口 |①---|
口①①口 |----|
口口口口 |----|
口口口口 |----|
36
口口口口 |①---|
②口口② |--②-|
口①①口
口口口口

口③③口
口||口
口∧∧口 |----|
口口口口 |③---|
37
口①①口 |----|
口口口口 |----|
口口口口 |----|
口口口口 |--①-|
38
口口口口 |----|
③口口③ |--①-|
口②①口 |--②-|
口口口口 |--③-|
39
①口口① |--①-|
口口口口 |----|
③口口② |②---|
口口口口 |③---|
40
口口口口 |①---|
③①①② |----|
口口口口 |②---|
口口口口 |③---|
41
口口口口 |①---|
口口口口 |②---|
②口口① |③---|
④口口③ |④---|
42
口口口口 |①---|
口①①口 |----|
口口口口 |----|
口口口口 |----|
43
②口口② |①---|
口口口口 |--②-|
口①①口 |----|
口口口口 |----|
44
②口口② |①---|
口口口口 |--②-|
口①①口 |----|
口口口口 |----|
45
口口口口 |①---|
口②①口 |②---|
口④③口 |③---|
口口口口 |④---|
46
②口口② |①---|
①口口① |②---|
口口口口 |----|
口口口口 |----|
47
口口口口 |①---|
口口口口 |----|
③①①② |②---|
口口口口 |③---|
48
口口口口 |①---|
③①①② |----|
口口口口 |②---|
口口口口 |③---|
49
口口口口 |①---|
口口口口 |②---|
②口口① |③---|
④口口③ |④---|
50
口口口口 |①---|
口①①口 |----|
口口口口 |----|
口口口口 |----|
51
②口口② |①---|
口口口口 |--②-|
口①①口 |----|
口口口口 |----|
52
②口口② |①---|
口口口口 |--②-|
口①①口 |----|
口口口口 |----|
53
口口口口 |①---|
口②①口 |②---|
口④③口 |③---|
口口口口 |④---|
54
口口口口 |①---|
口口口口 |②---|
口口口口 |----|
口②①口 |----|
55
口口口口 |①---|
口>―① |----|
口口口口 |----|
口口口口 |----|
56
口口口口 |①---|
①―<① |----|
口口口口 |----|
口口口口 |----|
57
口口口口 |①---|
①口口口 |----|
口>―① |----|
口口口口 |----|
58
口口口口 |①---|
口口口口 |----|
①―<① |----|
口口口口 |----|
59
口>―① |①---|
口口口口 |----|
①口口口 |----|
口口口口 |----|
60
①―<① |①---|
口口口口 |----|
口口口口 |----|
口口口口 |----|
61
①口口口 |①---|
口>―① |----|
口口口口 |----|
口口口口 |----|
62
口口口口 |①---|
①―<① |----|
口口口口
口口口口

口口口口
②口口口
口口口口 |----|
口口口口 |②---|
63
口口口口 |①-②-|
口②②口 |----|
口①①口 |----|
口口口口 |----|
64
①口口② |①---|
口口口口 |②---|
口口口口 |----|
口口口口 |----|
65
口口口口 |①-②-|
口②②口 |----|
口①①口 |----|
口口口口 |----|
66
①口口② |①---|
口口口口 |②---|
口口口口 |----|
口口口口 |----|
67
口口口口 |①---|
口口口口 |----|
口②①口 |②---|
口口口口 |----|
68
∨口口口 |①---|
|口口口 |----|
①口口口 |----|
口口口口 |----|
69
口口口口 |①---|
口口口② |----|
①口口① |②---|
口口口口 |----|
70
口口口口 |①---|
口②②口 |----|
口①①口 |②---|
口口口口 |----|
71
②①①② |①---|
口口口口 |----|
口口口口 |②---|
口口口口 |----|
72
③口口③ |①---|
口②②口 |--②-|
①口口① |----|
口口口口 |③---|
最終更新:2019年11月01日 22:08