アットウィキロゴ
今夜はパジャマパーティ
日向美ビタースイーツ♪

ADVANCED

Level: 7
BPM: 148
Notes: 405

1
口口口口 |----|
口口口口 |----|
口口口口 |----|
口口口口 |----|
2
③口口口 |①-②-|
口②②口 |----|
口①①口 |----|
口口口口 |--③-|
3
口口口口 |--①-|
口口口口 |②---|
口口②① |----|
口口口口 |----|
4
口口口③ |①-②-|
口②②口 |----|
口①①口 |----|
口口口口 |--③-|
5
口口口口 |--①-|
口口口口 |②---|
①②口口 |----|
口口口口 |----|
6
口③②∨ |①---|
口口口| |②-③-|
口①①⑤ |--④-|
口口④口 |--⑤-|
7
口口口口 |----|
口口口口 |----|
口口口口 |----|
口口口口 |----|
8
③口口⑥ |①-②-|
②口口⑤ |③-④-|
口⑦④① |⑤-⑥-|
口⑧口口 |⑦-⑧-|
9
⑤口口⑤ |--①-|
③②②③ |②---|
口口口口 |③-④-|
①④④① |--⑤-|
10
⑤⑥⑦口 |--①-|
口口口口 |②-③-|
②③③② |④-⑤-|
①④④① |⑥-⑦-|
11
⑥口口⑦ |①-②-|
口①②⑤ |③-④-|
口③④口 |⑤-⑥-|
口口口口 |--⑦-|
12
口口口⑤ |--①-|
④①口口 |②-③-|
口③②口 |④-⑤-|
口口口⑥ |--⑥-|
13
口口口口 |①-②-|
口口口④ |③-④-|
⑤⑥⑦口 |--⑤-|
③②①口 |⑥-⑦-|
14
①④口口 |①---|
口口口② |②-③-|
口口口③ |----|
口口口口 |--④-|
15
口口口⑦ |--①-|
口②①口 |②-③-|
口④③口 |④-⑤-|
口⑥⑤口 |⑥-⑦-|
16
口⑥⑥口 |--①-|
⑤①②⑤ |②-③-|
口③④口 |④-⑤-|
口口口口 |--⑥-|
17
口口口口 |----|
口口口口 |----|
口口口口 |----|
口口口口 |----|
18
口口②① |----|
口口口口 |----|
口口口口 |----|
口口口口 |①-②-|
19
口①口口 |①---|
④⑤③口 |②-③-|
口口口⑥ |--④-|
口②口口 |⑤-⑥-|
20
口口口④ |①-②-|
口口口口 |③-④-|
口口①口
②③口口

口口口口
口口口口
口口⑤口 |----|
口口⑥口 |⑤-⑥-|
21
口口④口 |①-②-|
口口③口 |③-④-|
⑤②⑦⑥ |⑤---|
口①口口 |⑥-⑦-|
22
③口⑤② |①-②-|
④口口口 |③-④-|
口①口口 |----|
口口口口 |--⑤-|
23
口口⑦⑥ |--①-|
口①②口 |②-③-|
口③④⑤ |④-⑤-|
口口口口 |⑥-⑦-|
24
口口口口 |--①-|
④口口口 |②-③-|
口口口口 |----|
口①②③ |--④-|
25
口④④口 |①-②-|
口⑤口② |③-④-|
①口⑥③ |--⑤-|
口⑦口口 |⑥-⑦-|
26
口口口口 |①---|
口>―①
口口口口
口口口口

口口口口
②口口② |--②-|
口口口③ |----|
口口口口 |--③-|
27
口口口① |①---|
②口口口 |②-③-|
口口口口 |----|
③口口④ |--④-|
28
④口口④ |①---|
口②②① |②-③-|
⑤③③⑤ |--④-|
口口口口 |--⑤-|
29
②口口口 |①---|
③①①口 |----|
④口口口 |--②-|
口口口口 |③-④-|
30
口口口口 |①②③-|
口口口口 |----|
口③②① |----|
口口口口 |----|
31
①①口⑥ |①---|
口口⑤口 |②-③-|
口④②口 |--④-|
口口③口 |⑤-⑥-|
32
①口口口 |--①-|
口②口口 |②-③-|
④③③④ |----|
口口口口 |--④-|
33
③口口③ |①---|
口②②口 |②-③-|
口口口口
口①①口

口∨∨口
口||口
④||④ |--④-|
口⑤⑤口 |⑤---|
34
口口口口 |----|
口口口口 |----|
口口口口 |----|
口口口口 |----|
35
口口口口 |①---|
②口口口 |----|
口口口② |----|
口①①口 |--②-|
36
口口口口 |①---|
口口口① |--②-|
①口口口
口②②口

③口口③
|口口|
|口口| |----|
∧口口∧ |③---|
37
①口口① |----|
口口口口 |----|
口口口口 |----|
口口口口 |--①-|
38
⑤⑤口口 |----|
口③口① |--①-|
④口②口 |②-③-|
口口口口 |④-⑤-|
39
口口⑥⑥ |--①-|
②口④口 |--②-|
口③口⑤ |③-④-|
①①口口 |⑤-⑥-|
40
口⑥口口 |--①-|
口②⑤口 |--②-|
口口③口 |③-④-|
口④①① |⑤-⑥-|
41
口口口① |①-②-|
口口口② |③-④-|
口口口③
口>―④

口口口口
⑥―<口
口口口口 |----|
⑤口口⑤ |⑤-⑥-|
42
口口口口 |----|
①④口② |①-②-|
⑤口③口 |③-④-|
口⑥口口 |⑤-⑥-|
43
∨∨①① |①--②|
③③口口 |--③-|
口口②②
口口口口

口口口口
④④口口
口口口口 |--④-|
口口口⑤ |--⑤-|
44
口口∨∨ |①-②-|
口口④④ |③-④-|
③口①口
口②口口

口口口口
口口⑤⑤
口口口口 |--⑤-|
口口口口 |----|
45
口口④③ |①---|
口口口口 |②-③④|
②口口②
口①①口

口⑤口口
⑦口口⑦
口口口口 |⑤---|
口⑥⑥口 |⑥-⑦-|
46
①口口② |①---|
口口口口 |②-③-|
③口口口
②口口①

口口口口
口④口⑥
口口⑤口 |④-⑤-|
口口⑦⑦ |⑥-⑦-|
47
口口①① |--①-|
⑤口③口 |--②-|
口④口② |③-④-|
⑥⑥口口 |⑤-⑥-|
48
①①口口 |--①-|
口②口口 |--②-|
口口口口
口口口口

口⑥口口
口口⑤口
口口③口 |③-④-|
口④口口 |⑤-⑥-|
49
口口口① |①-②-|
口口口② |③-④-|
口口口③
口>―④

口口口口
⑦―<口
⑥口口口 |--⑤-|
⑤口口⑤ |⑥-⑦-|
50
口口口口 |--①-|
①④口② |--②-|
⑤口③口 |③-④-|
口⑥口口 |⑤-⑥-|
51
∨∨①① |①--②|
③③口口 |--③-|
口口②②
口口口口

口口口口
④④口口
口口口口 |--④-|
口口⑤⑤ |--⑤-|
52
①①∨∨ |①--②|
口口③③ |--③-|
②②口口
口口口口

口口口口
口口④④
口口口口 |--④-|
口口口口 |----|
53
口①①口 |①---|
口口口口 |②---|
口②②口
口口口口

口④⑤口
③口口③
口口口口 |③---|
口⑤④口 |④-⑤-|
54
①口口② |--①-|
口口口口 |②---|
口③③口 |----|
②口口① |③---|
55
――① |①---|
口口口口 |----|
口口口口 |----|
口口口口 |----|
56
口口口① |①---|
口口口口 |----|
①――< |----|
口口口口 |----|
57
口口口口 |①---|
口>―① |----|
①口口口
口口口口

口②―<
口口口②
口口口口 |②---|
口口口口 |----|
58
口①口口 |①---|
口口口口 |----|
口口口口
―①口

口口口口
口口口口
口口口口 |----|
口口②口 |②---|
59
①――< |①---|
口口口口 |----|
口口口口 |----|
口口口口 |----|
60
①口口口 |①---|
口口口口 |----|
――① |----|
口口口口 |----|
61
口口口口 |①---|
①―<口 |----|
口口口①
口口口口

―②口
②口口口
口口口口 |②---|
口口口口 |----|
62
口口①口 |①---|
口口口口 |----|
口口口口
口①―<

口口口口
口口口口
口口口口 |----|
口②口口 |②---|
63
③口口口 |①-②-|
口②②口 |----|
口①①口 |----|
口口口口 |--③-|
64
口口口口 |--①-|
口口口口 |②---|
口口②① |----|
口口口口 |----|
65
口口口③ |①-②-|
口②②口 |----|
口①①口 |----|
口口口口 |--③-|
66
口口口口 |--①-|
口口口口 |②---|
①②口口 |----|
口口口口 |----|
67
口③②∨ |①---|
口口口| |②-③-|
口①①⑤ |--④-|
口口④口 |--⑤-|
68
口口口口 |----|
口口口口 |----|
口口口口 |----|
口口口口 |----|
69
③口口⑥ |①-②-|
②口口⑤ |③-④-|
口⑦④① |⑤-⑥-|
口⑧口口 |⑦-⑧-|
70
⑤口口⑤ |--①-|
③②②③ |②---|
口口口口 |③-④-|
①④④① |--⑤-|
71
口口口口 |--①-|
口口口口 |②-③-|
②③③② |④---|
①④④① |----|
72
口口口口 |①---|
①口口① |--②-|
①口口①
②②②②

口③③口
③口口③
口口口口 |----|
口口口口 |③---|
最終更新:2019年11月01日 22:08