アットウィキロゴ
怪盗BisCoの予告状!!
Qrispy Joybox

EXTREME

Level: 9
BPM: 160
Notes: 657

1
口口口口 |----|
口口口口 |----|
口口口口 |----|
口口口口 |----|
2
口①②口 |①-②-|
⑧口口③ |③-④-|
⑦口口④ |⑤-⑥-|
口⑥⑤口 |⑦-⑧-|
3
口①②口 |①-②-|
⑧口口③ |③-④-|
⑦口口④ |⑤-⑥-|
口⑥⑤口 |⑦-⑧-|
4
口①②口 |①-②-|
⑧口口③ |③-④-|
⑦口口④ |⑤-⑥-|
口⑥⑤口 |⑦-⑧-|
5
口①②口 |①-②-|
口⑧⑦③ |③-④-|
口⑩⑨④ |⑤-⑥-|
口⑥⑤口 |⑦⑧⑨⑩|
6
口②①口 |①-②-|
③口口⑧ |③-④-|
④口口⑦ |⑤-⑥-|
口⑤⑥口 |⑦-⑧-|
7
口②①口 |①-②-|
③口口⑧ |③-④-|
④口口⑦ |⑤-⑥-|
口⑤⑥口 |⑦-⑧-|
8
口②①口 |①-②-|
③口口⑧ |③-④-|
④口口⑦ |⑤-⑥-|
口⑤⑥口 |⑦-⑧-|
9
口口口口 |①---|
口①①口 |②---|
口口口口
②口口②

③③③③
口⑤④口
口⑦⑥口 |③---|
口口口口 |④⑤⑥⑦|
10
口口口⑤ |①-②-|
口口口③ |③④-⑤|
②口口④
口口口①

⑥口口口
⑦口口口
⑧口口口 |--⑥-|
口口口口 |⑦-⑧-|
11
口口口口 |①-②-|
口⑤口① |③④-⑤|
口③口口
口④②口

⑥口口⑥
⑦口口⑦
⑧口口⑧ |--⑥-|
口口口口 |⑦-⑧-|
12
⑤①④口 |--①-|
⑥口②口 |②③-④|
⑦口③口 |--⑤-|
口口口口 |⑥-⑦-|
13
口⑤口∨ |①-②-|
口③口| |③④-⑤|
口④口| |⑥---|
口①②⑥

⑦口口口
|口口口
|口口口
∧口口⑦ |⑦---|
14
①⑥①⑤ |①-②-|
口⑦口③ |③④-⑤|
口⑧口④ |--⑥-|
②口口口 |⑦-⑧-|
15
口口口口 |①-②-|
①口⑤口 |③④-⑤|
口口③口
口口④②

⑥口口⑥
⑦口口⑦
⑧口口⑧ |--⑥-|
口口口口 |⑦-⑧-|
16
口①①口 |①---|
口||口
口∧∧口
口口口口

口②②口
∨口口∨ |②---|
|口口| |③---|
③口口③

口口口口
口口口口
口口口口
④口口④ |④---|
17
②④③② |①---|
④①①③ |②---|
②①①② |③-④-|
口⑥⑤口 |⑤-⑥-|
18
口口口⑤ |①-②-|
口口口③ |③④-⑤|
②口口④
口口口①

⑥口口口
⑦口口口
⑧口口口 |--⑥-|
口口口口 |⑦-⑧-|
19
口口口口 |①-②-|
口⑤口① |③④-⑤|
口③口口
口④②口

⑥口口⑥
⑦口口⑦
⑧口口⑧ |--⑥-|
口口口口 |⑦-⑧-|
20
⑤①④口 |--①-|
⑥口②口 |②③-④|
⑦口③口 |--⑤-|
口口口口 |⑥-⑦-|
21
口⑤口∨ |①-②-|
口③口| |③④-⑤|
口④口| |⑥---|
口①②⑥

⑦口口口
|口口口
|口口口
∧口口⑦ |⑦---|
22
①⑥①⑤ |①-②-|
口⑦口③ |③④-⑤|
口⑧口④ |--⑥-|
②口口口 |⑦-⑧-|
23
口口口口 |①-②-|
①口⑤口 |③④-⑤|
口口③口
口口④②

⑥口口⑥
⑦口口⑦
⑧口口⑧ |--⑥-|
口口口口 |⑦-⑧-|
24
口①①口 |①---|
口||口
口∧∧口
口口口口

口②②口
∨口口∨ |②---|
|口口| |③---|
③口口③

口口口口
口口口口
口口口口
④口口④ |④---|
25
⑥②①⑤ |①-②-|
②⑧⑦① |③-④-|
④⑩⑨③ |⑤-⑥-|
口④③口 |⑦⑧⑨⑩|
26
口⑤⑥口 |①-②-|
④⑧口⑦ |③-④-|
③口口⑧ |⑤-⑥-|
口②①口 |⑦-⑧-|
27
口口口口 |①-②-|
④口口口 |③-④-|
③①口口
口②①口

口⑤⑥口
口口⑤⑦
口⑦口⑧ |⑤-⑥-|
口口口口 |⑦-⑧-|
28
口口口∨ |①-②-|
④口口| |③-④-|
③口口|
口②①①

口⑤⑥口
口⑧口⑦
口口口⑧ |⑤-⑥-|
口口口⑧ |⑦-⑧-|
29
口口口口 |①-②-|
④口口口 |③-④-|
③①口口
口②①口

口⑤⑥口
口口⑤⑦
口⑦口⑧ |⑤-⑥-|
口口口口 |⑦-⑧-|
30
口口口∨ |①-②-|
④口口| |③-④-|
③口口|
口②①①

口⑤⑥口
口⑧口⑦
口口口⑧ |⑤-⑥-|
口口口⑧ |⑦-⑧-|
31
口口口口 |①-②-|
④口口口 |③-④-|
③①口口
口②①口

口⑤⑥口
口口⑤⑦
口⑦口⑧ |⑤-⑥-|
口口口口 |⑦-⑧-|
32
④⑧⑥② |①-②-|
⑦口口⑤ |③-④-|
口⑦⑤口 |⑤-⑥-|
③③①① |⑦-⑧-|
33
⑧⑦⑤⑥ |①-②-|
⑦②①⑤ |③-④-|
②⑧⑥① |⑤-⑥-|
④④③③ |⑦-⑧-|
34
口口口口 |----|
口①②口 |----|
口③④口 |----|
口口口口 |①②③④|
35
口口口② |①-②-|
口口口③ |③-④-|
∨口口④
①口口口

口口口⑦
口口⑥口
口口口口 |⑤--⑥|
口口⑤口 |--⑦-|
36
口口⑤口 |①-②-|
口∨口② |③④-⑤|
口①①口
①口④③

口口口口
口口⑥⑦
口口⑦⑥ |--⑥-|
口口口口 |--⑦-|
37
∨④③② |①-②-|
①口口口 |③-④-|
口①口口
口口口口

口口口⑦
口口⑥口
口口口口 |⑤--⑥|
口口口⑤ |--⑦-|
38
口口①口 |①-②-|
①∨口口 |③④-⑤|
口①②⑤
口口④③

口口⑦⑥
口口⑥⑦
口口口口 |--⑥-|
口口口口 |--⑦-|
39
②口口口 |①-②-|
③口口口 |③-④-|
④①口∨
口口口①

⑦口口口
口⑥口口
口口口口 |⑤--⑥|
口⑤口口 |--⑦-|
40
口⑤口口 |①-②-|
②口∨口 |③④-⑤|
口①①口
③④口①

口口口口
⑦⑥口口
⑥⑦口口 |--⑥-|
口口口口 |--⑦-|
41
②③④∨ |①-②-|
口口口① |③-④-|
口口①口
口口口口

⑦口口口
口⑥口口
口口口口 |⑤--⑥|
⑤口口口 |--⑦-|
42
口②口口 |①---|
口口①① |②---|
口①口口
口口②口

④口口③
口③④口
口④③口 |③---|
③口口④ |④---|
43
口⑦②口 |①-②-|
③⑪⑨④ |③④⑤⑥|
⑤⑩⑧⑥ |⑦-⑧⑨|
口①口口 |-⑩⑪-|
44
∨口口∨ |①---|
|口口| |----|
|口口|
①口口①

口口∨口
口口|口
口口|口 |②---|
②口②②

口口口口
③――<
口口口口
口口③口 |③---|
45
⑧③口② |①-②-|
①⑦⑤③ |③-④-|
⑤口①④ |⑤⑥-⑦|
⑥①口口 |--⑧-|
46
口①口口 |①-②-|
口口口口
口口①口
口②口口

⑥>―⑤
⑦口口③ |③④-⑤|
⑧口口④ |--⑥-|
口口口口 |⑦-⑧-|
47
口口口① |①-②-|
口①口③ |③-④-|
口口口口
①④③②

⑥⑤口⑧
口口⑦口
口口⑤口 |⑤⑥-⑦|
口口口口 |--⑧-|
48
口口∨口 |①-②-|
②口|① |③④-⑤|
口①⑥口 |⑥---|
口④③⑤

口口口口
口⑦―<
口口⑦口
口口口口 |⑦---|
49
口口口⑥ |①-②-|
④①①⑤ |③-④-|
③⑤⑦口 |⑤⑥-⑦|
②口③⑧ |--⑧-|
50
口口②口 |①-②-|
口①口口
口口口口
口口①口

口口口口
④口口⑧ |③④-⑤|
③口口⑦ |--⑥-|
⑤―<⑥ |⑦-⑧-|
51
口口口① |①-②-|
④口口口 |③-④-|
口③口口
①口②口

口⑤⑤口
口口口口
口口口⑥ |⑤---|
⑦口口口 |⑥-⑦-|
52
⑦口⑥口 |①-②-|
③③口② |③-④-|
①①⑧口 |⑤-⑥-|
口⑤口④ |⑦-⑧-|
53
⑧③口② |①-②-|
口⑦⑤③ |③-④-|
⑤①口④ |⑤⑥-⑦|
⑥口口口 |--⑧-|
54
口①口口 |①-②-|
口口口口
口口①口
口②口口

⑥>―⑤
⑦口口③ |③④-⑤|
⑧口口④ |--⑥-|
口口口口 |⑦-⑧-|
55
口口口① |①-②-|
口③口口 |③-④-|
口①口口
①④③②

⑥⑤口⑧
口口⑦口
口口⑤口 |⑤⑥-⑦|
口口口口 |--⑧-|
56
口口∨口 |①-②-|
②口|① |③④-⑤|
口①⑥口 |⑥---|
口④③⑤

口口口口
口⑦―<
口口⑦口
口口口口 |⑦---|
57
口口口⑥ |①-②-|
④①①⑤ |③-④-|
③⑤⑦口 |⑤⑥-⑦|
②口③⑧ |--⑧-|
58
口口④口 |①-②-|
③口③口 |③-④-|
口口口②
口①①口

⑤口口⑤
口口口⑥
⑦口口口 |⑤-⑥-|
口口⑦⑧ |⑦-⑧-|
59
⑥口口⑦ |①-②-|
口②③口 |③-④-|
口①④口 |⑤-⑥-|
⑤口口⑧ |⑦-⑧-|
60
口③②口 |①-②-|
③⑦⑥② |③-④-|
①⑤⑧④ |⑤-⑥-|
口①④口 |⑦-⑧-|
61
口①②口 |①-②-|
⑧口口③ |③-④-|
⑦口口④ |⑤-⑥-|
口⑥⑤口 |⑦-⑧-|
62
口①②口 |①-②-|
⑧口口③ |③-④-|
⑦口口④ |⑤-⑥-|
口⑥⑤口 |⑦-⑧-|
63
口①②口 |①-②-|
⑧口口③ |③-④-|
⑦②①④ |⑤-⑥-|
口⑥⑤口 |⑦-⑧-|
64
⑤①②口 |①-②-|
口⑧⑦③ |③-④-|
口⑩⑨④ |⑤-⑥-|
口⑥⑤口 |⑦⑧⑨⑩|
65
口②①口 |①-②-|
③⑦⑧口 |③-④-|
④⑨⑩口 |⑤-⑥-|
口⑤⑥口 |⑦⑧⑨⑩|
66
①①②口 |①-②-|
口⑧⑦③ |③-④-|
口⑩⑨④ |⑤-⑥-|
口⑥⑤口 |⑦⑧⑨⑩|
67
口②①① |①-②-|
④⑩⑨③ |③④⑤⑥|
⑥⑫⑪⑤ |⑦-⑧-|
口⑧⑦⑦ |⑨⑩⑪⑫|
68
①口口① |①---|
|口口| |----|
|口口|
∧口口∧

②口口②
口②②口
口②②口 |----|
口口口口 |②---|
最終更新:2019年11月01日 22:14