アットウィキロゴ
爆なな☆てすとロイヤー
ARM feat.ななひら

ADVANCED

Level: 9
BPM: 200
Notes: 657

1
口口口口 |----|
口口口口 |----|
口口口口 |----|
口口口口 |----|
2
口口口口 |①---|
口口①口
口口|口
口口∧口

口口口口
口口②口 |----②-|
口口口口 |----|
口口口口 |----|
3
口口口口 |----|
口口口口 |----|
口口口口 |----|
口口口口 |----|
4
口口口口 |----|
口口口口 |----|
口口口口 |----|
口口口口 |----|
5
口口口口 |----|
口口口口 |----|
口口口口 |----|
口口口口 |----|
6
③⑤②④ |①---|
口口口口 |②-③-|
口①①口 |--④-|
口口口口 |⑤---|
7
③⑤②④ |①---|
口口口口 |②-③-|
口①①口 |--④-|
口口口口 |⑤---|
8
③⑤②④ |①---|
口口口口 |②-③-|
口①①口 |--④-|
口口口口 |⑤---|
9
③⑤②④ |①---|
口⑥口口 |②-③-|
口①①口 |--④-|
口口口口 |⑤-⑥-|
10
口口口口 |①---|
口口口口 |----|
口①①口 |----|
口口口口 |----|
11
口口⑨口 |①②③④|
⑥②①⑨ |⑤-⑥-|
口④③⑦ |⑦-⑧-|
⑧口⑤口 |⑨---|
12
①④口口 |①---|
④口口口 |②-③-|
口口③⑥ |④---|
口口⑤② |⑤-⑥-|
13
⑥口①③ |①---|
口①口口 |②---|
①口②口 |③-④-|
⑤口口④ |⑤-⑥-|
14
口①口口 |①---|
①口①口 |②-③-|
③①口口
口口②口

⑤⑥口口
口④口④
口口④口 |④---|
口④口④ |⑤-⑥-|
15
口口③① |①---|
①口①④ |②---|
⑤①口① |③-④-|
①⑥②口 |⑤-⑥-|
16
①①④④ |①---|
口①口④ |②-③-|
口①口④ |④---|
③⑥②⑤ |⑤-⑥-|
17
③①口③ |①---|
①口口口 |②---|
③②②③ |③---|
口口口口 |----|
18
口口①口 |①---|
口②口口 |----|
口口口口 |②---|
口口口口 |----|
19
口口口口 |①---|
口口口口 |----|
口口①口 |②---|
口②口口 |----|
20
口①口口 |①---|
①②口⑥ |②-③-|
口⑤口口 |--④-|
口口③④ |⑤-⑥-|
21
⑤①口口 |①---|
①②口⑥ |②-③-|
口⑤口口 |--④-|
口口③④ |⑤-⑥-|
22
口①口口 |①---|
①②口⑥ |②-③-|
口⑤口口 |--④-|
口口③④ |⑤-⑥-|
23
口①④口 |①---|
①口口④ |②---|
②口口③ |③---|
口②③口 |④---|
24
口①口口 |①---|
①口②口 |②-③-|
口口口口
口③口口

口口口口
⑥口口口
口口⑤口 |--④-|
④口口口 |⑤-⑥-|
25
口口①口 |①---|
⑥口②① |②-③-|
口口⑤口 |--④-|
④③口口 |⑤-⑥-|
26
口①①口 |①---|
口口口口 |----|
口口口口 |②---|
口②②口 |----|
27
①②口口 |①-②-|
口口④③ |③-④-|
口口⑧⑦ |⑤-⑥-|
⑤⑥口口 |⑦-⑧-|
28
口①口口 |①---|
①②口⑥ |②-③-|
口⑤口口 |--④-|
口口③④ |⑤-⑥-|
29
④①口口 |①---|
①②口⑦ |②-③-|
口⑥口口 |④-⑤-|
口口③⑤ |⑥-⑦-|
30
口①口口 |①---|
①②口⑥ |②-③-|
口⑤口口 |--④-|
口口③④ |⑤-⑥-|
31
⑥①⑥② |①--②|
①口④口 |--③-|
口口口③ |④-⑤-|
②⑤③口 |⑥---|
32
口①口口 |①-②-|
⑤②口⑤ |③-④-|
口口③口 |⑤---|
口口④口 |----|
33
口口①口 |①-②-|
⑤口②⑤ |③-④-|
口③口口 |⑤---|
口④口口 |----|
34
口①①口 |①---|
口②②口 |②---|
口③③口 |③---|
口④④口 |④---|
35
口口口口 |----|
口①口口 |----|
口|口口 |①---|
口∧口口 |----|
36
口口口口 |----|
口口口口 |----|
口口口口 |----|
口口口口 |----|
37
口口口口 |----|
口①口口 |----|
口口口口 |①---|
口口口口 |----|
38
口口口口 |①---|
口口口口 |----|
口口口口 |----|
口①①口 |----|
39
口口口口 |①---|
①口口口 |----|
口②口口 |②---|
口口口口 |----|
40
口口口口 |①---|
口口①口 |----|
口口口② |②---|
口口口口 |----|
41
口④口口 |①---|
口口③口 |②---|
口②口口 |③---|
口口①口 |④---|
42
口口①口 |①---|
口②口口 |②---|
口口③口 |③---|
口④口口 |④---|
43
①口口① |①---|
口④②口 |②---|
口口口口 |③---|
口口③口 |④---|
44
口口口口 |①---|
②口口口 |②---|
④口口口 |③---|
③①口口 |④---|
45
④④④④ |①---|
口③③③ |②---|
口口②② |③---|
口口口① |④---|
46
口⑤⑦口 |①---②-|
④口口⑥ |----③-|
口③③口 |④-⑤-|
②口口① |⑥-⑦-|
47
口口口口 |①---|
口口口口 |----|
口口口口
口①①口

口口口口
口口②口
口口③口 |--②-|
口口④口 |③-④-|
48
口口口口 |----|
口口口口 |----|
①口口③ |①-②-|
口②④口 |③-④-|
49
口①①口 |①---|
口口口口 |----|
口口口口
口口口口

口④口口
口③口口
口②口口 |--②-|
口口口口 |③-④-|
50
口口①口 |----|
口口口① |----|
②口口口 |①---|
口②口口 |②---|
51
口口⑤口 |①-②-|
④⑥②口 |③-④-|
口③口① |----|
口口口口 |⑤-⑥-|
52
口口口口 |①---|
②口口口 |②---|
③口①口 |③---|
④口口口 |④---|
53
③①①③ |①---|
④口口② |②---|
口口口口 |③---|
④口口② |④---|
54
③⑦⑤③ |①-②-|
⑥②①④ |--③-|
③口口③ |④-⑤-|
口②①口 |⑥-⑦-|
55
口口口口 |①---|
口口口口 |----|
口口口口
口①①口

口②口口
②口口口
口口口③ |----|
口口③口 |②-③-|
56
口口口口 |----|
口③口③ |----|
②口②口 |①---②-|
口①口① |--③---|
57
①③①口 |①---|
口④口口 |----|
口⑤口口 |②-③-|
口②②口 |④-⑤-|
58
口口口口 |----|
①口口① |----|
口口口口 |----|
口口口口 |①---|
59
口③③口 |①-②-|
⑤①②⑤ |--③-|
①口口② |--④-|
口④④口 |--⑤-|
60
口口⑤① |--①-|
口口②⑤ |②-③-|
④③口口 |④---|
口④口口 |⑤---|
61
口①口口 |①---|
①┼<口 |----|
口∧口口 |----|
口口口口 |----|
62
口①口口 |①-②-|
①口口口 |③-④-|
③口口①
口④②口

⑤><⑤
口口口口
口口口口 |⑤---|
口口口口 |----|
63
④口口④ |①---|
口②①口 |②---|
口④③口 |③---|
口口口口 |④---|
64
口口①口 |①-②-|
②口⑤① |③-④-|
③口⑥口 |⑤-⑥-|
④口⑦口 |⑦---|
65
口①口口 |①-②-|
①⑤口② |③-④-|
口⑥口③ |⑤-⑥-|
口⑦口④ |⑦---|
66
口①①口 |①---|
口③②口 |②-③-|
口⑤⑤口 |④---|
④口口④ |⑤---|
67
①口口① |①---|
①口口① |----|
口口口口
口口口口

口②③④
口口口|
口口口∧ |--②-|
口口口口 |③-④-|
68
②口口② |①-②-|
③①口口 |③-④-|
④口口口
口口口口

口口口口
∨口⑤口
|口口口 |⑤-⑥-|
⑧⑦⑥口 |⑦-⑧-|
69
口口口口 |①-②-|
口口口② |③-④-|
口口①③
②口口④

∨⑥⑦⑧
⑧⑦⑥∧
口⑤口口 |⑤-⑥-|
口口口口 |⑦-⑧-|
70
口口口① |----|
①口口口 |--①-|
口①①口
口口口口

口口口口
口口∨口
③>┼④ |②---|
②③④② |③-④-|
71
④③②口 |----|
|口口口 |----|
∧口口① |①-②-|
口口①口 |③-④-|
72
②口口② |①-②-|
口口①③ |③-④-|
口口口④
口口口口

口口口口
口⑤口∨
口口口| |⑤-⑥-|
口⑥⑦⑧ |⑦-⑧-|
73
口⑦⑦口 |①-②-|
②口⑥口 |③-④-|
③①⑤口 |⑤-⑥-|
④⑧口② |⑦-⑧-|
74
④口⑦① |①-②-|
口②口口 |③-④-|
⑥⑧口⑤ |⑤-⑥-|
口口③口 |⑦-⑧-|
75
口口口口 |①---|
①口②口 |②---|
口口①口
①②口②

④⑤⑥③
口③|口
口口∧③ |③-④-|
口口口口 |⑤-⑥-|
76
口口②口 |①-②-|
②口口口 |③-④-|
③①口口
④口口口

口口口口
口∨⑤口
口|口口 |⑤-⑥-|
口⑧⑦⑥ |⑦-⑧-|
77
口⑥口② |①-②-|
⑥口⑦③ |③-④-|
口⑤①④ |⑤-⑥-|
口②口口 |--⑦-|
78
口口>① |①---|
口口口口
∨口口口
①口口口

④口口②
∧③口口 |②-③-|
口口③口 |④---|
②口>④

⑤>⑥口
口口⑤⑥
口⑤口∧
口口口⑤ |⑤-⑥-|
79
口④③口 |①---|
①口口③ |②---|
②口口口 |③---|
③口④口 |④---|
80
口口⑤口 |①---|
①口口口 |--②③|
②③④① |④---|
口⑤口口 |⑤---|
81
①口⑤口 |①---|
口口口⑤ |--②③|
口④③② |④---|
口口口① |--⑤-|
82
口①口口 |①---|
①口口④ |--②-|
③②②⑤ |--③-|
口口口口 |④-⑤-|
83
①口口② |①-②-|
口口口口 |--③-|
④③③④ |----|
②口口① |④---|
84
⑤①①⑤ |①-②-|
⑥②②⑥ |③-④-|
口③③口 |⑤---|
⑥④④⑥ |⑥---|
85
⑤①①⑤ |①-②-|
⑥②②⑥ |③-④-|
口③③口 |⑤---|
⑥④④⑥ |⑥---|
86
⑤①①⑤ |①-②-|
⑥②②⑥ |③-④-|
口③③口 |⑤---|
⑥④④⑥ |⑥---|
87
口①⑧口 |①-②-|
口⑦②口 |③-④-|
口③⑥口 |⑤-⑥-|
口⑤④口 |⑦-⑧-|
88
①④口口 |①---|
④口口② |②-③-|
口口口⑥ |④---|
口③⑤口 |⑤-⑥-|
89
⑥口①③ |①---|
口①口口 |②---|
①口②口 |③-④-|
⑤口口④ |⑤-⑥-|
90
口①口口 |①---|
①口①口 |②-③-|
③①口口
口口②口

⑤⑥口口
口④口④
口口④口 |④---|
口④口④ |⑤-⑥-|
91
口口③① |①---|
①口①④ |②---|
⑤①口① |③-④-|
①⑥②口 |⑤-⑥-|
92
①①④④ |①---|
口①口④ |②-③-|
口①口④ |④---|
③⑥②⑤ |⑤-⑥-|
93
③①口③ |①---|
①口口口 |②---|
③②②③ |③---|
口口口口 |----|
94
口口①口 |①---|
口②口口 |----|
口口口口 |②---|
口口口口 |----|
95
口口口口 |①---|
口口口口 |----|
口口①口 |②---|
口②口口 |----|
96
口口口口 |①---|
口①口口 |----|
口①口口
①口①口

②口口②
|口口|
|口口| |②-|
∧口口∧

③口口③
口口口口
口口口口 |-③|
口口口口 |----|
97
口④④口 |①-②-|
④口①④ |③-④-|
口②口口 |----|
口口③口 |----|
最終更新:2019年11月01日 22:33