アットウィキロゴ
びいすと!
ビートまりおとARM

ADVANCED

Level: 7
BPM: 200
Notes: 376

1
口口口口 |----|
口口口口 |----|
口口口口 |----|
口①①口 |①---|
2
口口口口 |①---|
③④口口 |②---|
②①口口 |③---|
口口口口 |④---|
3
口口口口 |①---|
口口④③ |②---|
口口①② |③---|
口口口口 |④---|
4
口①①口 |①---|
口口口口 |----|
口②②口 |②---|
口口口口 |----|
5
口口口口 |①---|
口①①口 |----|
口口口口 |②---|
口②②口 |----|
6
口口口口 |①---|
③④口口 |②---|
②①口口 |③---|
口口口口 |④---|
7
口口口口 |①---|
口口④③ |②---|
口口①② |③---|
口口口口 |④---|
8
②④④② |①---|
口口口口 |②---|
口口口口 |③---|
③①①③ |④---|
9
②口口② |①---|
④口口④ |②---|
口①①口 |③---|
口③③口 |④---|
10
口①②口 |①-②-|
口③④口 |③-④-|
⑤口口⑥ |⑤-⑥-|
⑦口口⑧ |⑦-⑧-|
11
①口口② |①-②-|
③口口④ |③-④-|
口⑤⑥口 |⑤-⑥-|
口⑦⑧口 |⑦-⑧-|
12
⑦口口⑧ |①-②-|
⑤口口⑥ |③-④-|
③口口④ |⑤-⑥-|
①口口② |⑦-⑧-|
13
口⑦⑧口 |①-②-|
口⑤⑥口 |③-④-|
口③④口 |⑤-⑥-|
口①②口 |⑦-⑧-|
14
⑦口口⑧ |①-②-|
③口口④ |③-④-|
⑤口口⑥ |⑤-⑥-|
①口口② |⑦-⑧-|
15
口⑦⑧口 |①-②-|
口③④口 |③-④-|
口⑤⑥口 |⑤-⑥-|
口①②口 |⑦-⑧-|
16
口口口口 |①---|
①口口② |----|
①口口② |②---|
口口口口 |----|
17
口口①③ |①---|
口①②口 |②---|
口②①口 |③---|
③①口口 |----|
18
口②③口 |①---|
口口口口 |②---|
口口口口 |③---|
――① |----|
19
口口口口 |①---|
③①②口 |②---|
口口口口 |----|
口口口口 |--③-|
20
②口口口 |--①-|
口口①口 |----|
口口口口 |--②-|
口口口口 |----|
21
口口①口 |----|
口②口口 |①---|
口口口口 |----|
口口口口 |②---|
22
②口口口 |----|
口口口口 |①---|
口口①口 |----|
口口口口 |②---|
23
口口①口 |--①-|
②口口口 |--②-|
③口口口 |----|
口口口口 |③---|
24
口口口口 |--①-|
口口口口 |----|
口①②口 |②---|
口口口口 |----|
25
口口口口 |----|
①口口口 |----|
口口口口 |①---|
口口口口 |----|
26
④口口口 |①---|
③口②口 |②---|
口口①口 |③---|
口口口口 |④---|
27
④口口口 |①---|
③口②口 |②---|
口口①口 |③---|
口口口口 |④---|
28
口口口口 |①---|
②②口口 |----|
口①①口 |②---|
口口口口 |----|
29
①②口口 |①---|
口③④口 |②---|
口口口口 |③---|
口口口口 |④---|
30
口口口口 |①---|
口②口口 |----|
口①①口 |②---|
口口口口 |----|
31
①口①口 |①---|
口口口口 |----|
口②口口 |②---|
口口口口 |----|
32
①口②口 |①---|
口口口口 |----|
口口口口 |②---|
口口口口 |----|
33
①口口口 |①---|
②④口口 |②---|
③④口口 |③---|
口口口④ |④---|
34
口①②口 |①---|
口口口口 |②---|
口口口口 |③---|
口③④口 |④---|
35
口口口口 |①---|
①口口② |②---|
③口口④ |③---|
口口口口 |④---|
36
口口口口 |①---|
口口口口 |----|
口口口口 |②---|
口口①② |----|
37
口口②口 |①---|
口②口口 |----|
口口②口 |②---|
口②①口 |----|
38
口口口口 |①---|
口口②① |②---|
口④口③ |③---|
口口口口 |④---|
39
口②④口 |①---|
口口口① |②---|
口口口③ |③---|
口口口口 |④---|
40
口口口口 |①---|
②口口② |②---|
口①①口 |----|
口口口口 |----|
41
口口口口 |--①-|
①口口① |----|
口②②口 |②---|
口口口口 |----|
42
口口口口 |①---|
口口口口 |----|
――① |----|
口口口口 |----|
43
口口口口 |①---|
①――< |----|
口口口口
口口口口

口口口口
②口口口
口口口③ |②---|
口口口口 |③---|
44
口口口口 |①---|
口口口口 |----|
口口口口 |----|
――① |----|
45
口口口口 |①---|
①――< |----|
口口口口
口口口口

口口口口
②口口口
口口口口 |②---|
口口口③ |③---|
46
口∨∨口 |①---|
口||口 |----|
口||口 |----|
口①①口 |----|
47
口口口口 |----|
口口口口 |----|
口口口口 |----|
口口口口 |----|
48
①②口口 |①---|
口口口口 |----|
口口口口 |②---|
口口口口 |----|
49
口口①② |①---|
口口口口 |----|
口口口口 |②---|
口③③口 |③---|
50
口口口口 |①---|
①口口② |②---|
③口口④ |③---|
口口口口 |④---|
51
口口口口 |①---|
口①②口 |②---|
口③④口 |③---|
口口口口 |④---|
52
口口口口 |①---|
②口口④ |②---|
①口口③ |③---|
口口口口 |④---|
53
口口口口 |①---|
口②④口 |②---|
口①③口 |③---|
口口口口 |④---|
54
①②④③ |①---|
口口口口 |②---|
口口口口 |③---|
口口口口 |④---|
55
口口口口 |①---|
③口口④ |②---|
①口口② |③---|
口口口口 |④---|
56
口口口口 |①---|
口口口口 |②---|
口口口口 |③---|
①③④② |④---|
57
口口口④ |①---|
口②②③ |②---|
口①①口 |③---|
口口口口 |④---|
58
④口口口 |①---|
③口口口 |②---|
②口口口 |③---|
①口口口 |④---|
59
口口口④ |①---|
口口口③ |②---|
口口口② |③---|
口口口① |④---|
60
口④口口 |①---|
口③口口 |②---|
口②口口 |③---|
口①口口 |④---|
61
口口④口 |①---|
口口③口 |②---|
口口②口 |③---|
口口①口 |④---|
62
口口口口 |①---|
口口口口 |----|
②口口② |②---|
①口口① |----|
63
②口口② |①---|
①口口① |----|
口口口口 |②---|
口口口口 |----|
64
口④④口 |①---|
口③③口 |②---|
口②②口 |③---|
口①①口 |④---|
65
口口口口 |①---|
①口口② |②---|
口③④口 |③-④-|
口⑤⑥口 |⑤-⑥-|
66
①口口① |①---|
口口口口 |----|
口口口口 |----|
口口口口 |----|
67
口口口口 |----|
口口口口 |----|
口口口口 |----|
口口口口 |----|
68
①②口口 |①---|
④③口口 |②---|
口口口口 |③---|
口口口口 |④---|
69
口口②① |①---|
口口③④ |②---|
口口口口 |③---|
口口口口 |④---|
70
口口口口 |①---|
口口口口 |②---|
①②口口 |③---|
④③口口 |④---|
71
口口口口 |①---|
口口口口 |②---|
口口②① |③---|
口口③④ |④---|
72
③④口口 |①---|
②①口口 |②---|
口口口口 |③---|
口口口口 |④---|
73
口口④③ |①---|
口口①② |②---|
口口口口 |③---|
口口口口 |④---|
74
口口口口 |①---|
口口口口 |②---|
②①口口 |③---|
③④口口 |④---|
75
口口口口 |①---|
口口口口 |②---|
口口①② |③---|
口口④③ |④---|
76
①口口② |①-②-|
③口口④ |③-④-|
⑤口口⑥ |⑤-⑥-|
⑦口口⑧ |⑦-⑧-|
77
口①②口 |①-②-|
口③④口 |③-④-|
口⑤⑥口 |⑤-⑥-|
口⑦⑧口 |⑦-⑧-|
78
⑦口口② |①-②-|
⑤口口④ |③-④-|
③口口⑥ |⑤-⑥-|
①口口⑧ |⑦-⑧-|
79
口①⑧口 |①-②-|
口③⑥口 |③-④-|
口⑤④口 |⑤-⑥-|
口⑦②口 |⑦-⑧-|
80
口口口② |①---|
③口口④ |--②-|
①⑤⑥① |③-④-|
口口口口 |⑤-⑥-|
81
③口口④ |--①-|
⑤口①⑥ |--②-|
口口口口 |③-④-|
口口②口 |⑤-⑥-|
82
⑦口口⑧ |①-②-|
口①②口 |③-④-|
⑤③④⑥ |⑤-⑥-|
⑤口口⑥ |⑦-⑧-|
83
口①①口 |①---|
口②②口 |②---|
口口口口 |③---|
③④④③ |④---|
84
①①< |①---|
口口口口 |----|
①①< |----|
口口口口 |----|
85
口口口口 |----|
口口口口 |----|
口口口口 |----|
口口口口 |----|
86
口①①口 |----|
口口口口 |----|
口①①口 |----|
口口口口 |--①-|
87
口口口口 |----|
①口口① |----|
口口口口 |①---|
口口口口 |----|
最終更新:2019年11月01日 22:34