アットウィキロゴ
分けるな危険!モモモモモモーイズム
ARM×狐夢想 feat. 桃井はるこ

EXTREME

Level: 10
BPM: 200
Notes: 710

1
口口口口 |----|
口口口口 |----|
口口口口 |----|
口口口口 |----|
2
∨口口∨ |①---|
|口口| |----|
|口口| |----|
①口口① |----|
3
口口口口 |----|
口口口口 |----|
口口口口 |----|
口口口口 |----|
4
口口口口 |----|
口口口口 |----|
口口口口 |----|
口口口口 |----|
5
口口口口 |----|
口口口口 |----|
口口口口 |----|
口口口口 |----|
6
口口口口 |①---|
口口口口 |----|
口口口口 |----|
①口口① |----|
7
口口口口 |①---|
口口口口 |②---|
口口口口 |③---|
①②③④ |④---|
8
口①②口 |①-②-|
⑨⑩⑪⑫ |③-④-|
⑤⑥⑦⑧ |⑤⑥⑦⑧|
口③④口 |⑨⑩⑪⑫|
9
①口口① |①---|
口口口口 |②---|
口口口口
②口口②

口口口⑥
口⑤口口
口口④口 |③-④-|
口③口口 |⑤-⑥-|
10
口口口口 |--①-|
⑦⑧⑨⑩ |--②-|
③④⑤⑥ |③④⑤⑥|
口②①口 |⑦⑧⑨⑩|
11
①口口① |①---|
口口口⑥ |②---|
③口⑤口 |③-④-|
②④口② |⑤-⑥-|
12
口②口口 |--①-|
⑦⑧⑨⑩ |-②--|
③④⑤⑥ |③④⑤⑥|
口口口① |⑦⑧⑨⑩|
13
①⑧⑨① |①---|
口⑥⑦口 |----|
口④⑤口 |②③④⑤|
口②③口 |⑥⑦⑧⑨|
14
①口口① |①---|
|口口| |----|
∧口口∧
口口口口

②口口②
口口口口
口②②口 |----|
口口口口 |②---|
15
口①②口 |①---|
口③④口 |②---|
口口口口 |③---|
口口口口 |④---|
16
口口③口 |①---|
口口口③ |②---|
口①②④ |③---|
口口④口 |④---|
17
口口口⑤ |①-②-|
口口⑥口 |③-④-|
③④口⑦ |⑤-⑥-|
①②⑧口 |⑦-⑧-|
18
口①①口 |①---|
口口口⑥ |②-③-|
②口口⑤ |--④-|
口③口④ |⑤-⑥-|
19
①口口口 |①---|
口口①口 |②---|
口口②口
②口口口

口④∨口
―┼⑤
④口|口 |③-④-|
口③⑤口 |--⑤-|
20
②口口口 |----|
口②口① |①---|
口口口口 |②---|
③口①口 |--③-|
21
④口口① |--①-|
口⑤②口 |②-③-|
口③⑥口 |④-⑤-|
口口口⑦ |⑥-⑦-|
22
口口④④ |①---|
①口④① |②---|
②③口② |--③-|
③口③口 |--④-|
23
③③口⑤ |--①-|
①①④口 |--②-|
①④②② |③---|
⑤口口② |④-⑤-|
24
口口①口 |--①-|
口②口④ |②-③-|
③口⑤口 |④-⑤-|
口⑥口口 |⑥---|
25
①口②① |①-②-|
口③口④ |③-④-|
⑤口⑥⑤ |⑤-⑥-|
口⑦口⑧ |⑦-⑧-|
26
口④口⑤ |①-②-|
口口③⑥ |③-④-|
口②口⑦ |--⑤-|
口口①口 |⑥-⑦-|
27
③⑥⑤口 |①---|
⑥④⑥口 |②---|
⑤⑥③口 |③-④-|
②①①② |⑤-⑥-|
28
口口口① |----|
口口②口 |----|
口口口③ |--①-|
口口口口 |②-③-|
29
口口口口 |①-②-|
口口口口 |--③-|
①③③口
口②口口

④口口口
口⑤口口
⑥口口口 |--④-|
口口口口 |⑤-⑥-|
30
口⑥⑥① |①-②-|
④口②④ |③-④-|
口⑥⑥③ |⑤---|
口⑤⑤口 |--⑥-|
31
①口⑤① |--①-|
口②②口 |②-③-|
③口⑤③ |④---|
口④④口 |⑤---|
32
②①③③ |①---|
②口口③ |----|
②①③口 |②---|
②口③③ |③---|
33
③口口口 |①-②-|
口口①口 |--③-|
口②口口
口口口口

口⑥口⑥
口口⑥口
口口口口 |--④-|
口⑤④口 |⑤-⑥-|
34
口口⑥口 |--①-|
口②口④ |②-③-|
①口③口 |④-⑤-|
口口口⑤ |⑥---|
35
②口口② |①---|
口口口口 |②-③-|
①口口③
口①③口

口口口口
⑤口⑤口
⑤⑤⑤口 |--④-|
④⑤口④ |--⑤-|
36
③④②① |--①-|
⑤口口⑤ |②-③-|
口口口口 |④---|
口⑤⑤口 |⑤---|
37
口⑦④① |①-②-|
⑧⑤②口 |③-④-|
口口⑥③ |⑤-⑥-|
口口口口 |⑦-⑧-|
38
⑥口口② |①-②-|
口⑥③口 |③-④-|
口①口④ |⑤---|
口⑤⑤口 |⑥---|
39
口口口口 |①-②-|
③口口⑥ |③-④-|
②⑧⑦⑤ |⑤-⑥-|
①⑦⑧④ |⑦-⑧-|
40
②③③① |①-②-|
⑤②①⑤ |③-④-|
口⑧口口 |⑤-⑥-|
④⑥⑦④ |⑦-⑧-|
41
④⑥⑧② |①-②-|
口口口口 |③-④-|
③口口① |⑤-⑥-|
口⑤⑦口 |⑦-⑧-|
42
⑥口口② |①-②-|
⑦口口③ |③-④-|
⑧①①④ |⑤-⑥-|
口口口⑤ |⑦-⑧-|
43
口口③口 |①-②-|
口口口口 |③-④-|
口④②口
①―<口

口⑤口口
口⑧⑦⑥
口口口口 |⑤-⑥-|
⑥口口口 |⑦-⑧-|
44
∨口口口 |①-②-|
|口口口 |③-④-|
①口④口
口③②口

⑦⑧⑥⑤
口口口口
⑤口口口 |⑤-⑥-|
口口口口 |⑦-⑧-|
45
口口口口 |①--②|
口①口① |--③-|
口②口|
③口口∧

口口口口
④口⑥④
口口口口 |④--⑤|
口⑤口口 |--⑥-|
46
③③①① |①--②|
口口口口 |--③-|
口②②口 |④---|
④⑤⑤④ |⑤---|
47
⑤④①② |①---②-|
口③③口 |--③---|
④⑤②① |④---⑤-|
口⑥⑥口 |--⑥---|
48
口口口口 |①---|
①口口① |----|
|口口| |----|
∧口口∧ |----|
49
口口口口 |①---|
①④③① |②---|
口②①口 |③---|
口口口口 |④---|
50
口口口① |①---|
③口口口 |--②-|
口口②口 |----|
口口口口 |③---|
51
口口口口 |①---|
口③④口 |②---|
口①②口 |③---|
口口口口 |④---|
52
①口口口 |①---|
口口口③ |--②-|
口②口口 |----|
口口口口 |③---|
53
①口口口 |①---|
②口口口 |②---|
③口口口 |③---|
④口口口 |④---|
54
口口口① |①---|
口口口② |②---|
口口口③ |③---|
口口口④ |④---|
55
口口口口 |①---|
口口口口 |②---|
口③④口 |③---|
口①②口 |④---|
56
①口口① |①---|
|口口| |----|
|口口| |----|
∧口口∧ |----|
57
①口口① |①---|
口口口口 |----|
口口口口 |----|
口口口口 |----|
58
②口口① |①---|
口②①口 |----|
口①②口 |②---|
①口口② |----|
59
口口⑥⑤ |①-②-|
口口⑧⑦ |③-④-|
③④口口 |⑤-⑥-|
①②口口 |⑦-⑧-|
60
①⑤⑦⑥ |①-②-|
⑤①口⑧ |③-④-|
④口①⑤ |⑤-⑥-|
②③⑤① |⑦-⑧-|
61
①口口口 |①-②-|
口口口口 |③-④-|
⑧⑦⑥⑤ |⑤-⑥-|
②③④① |⑦-⑧-|
62
③①①② |①---|
口口口口 |----|
口口口口 |②---|
②口口③ |③---|
63
口口口口 |①-②-|
④口⑥⑤ |③-④-|
②③⑧⑦ |⑤-⑥-|
口①①口 |⑦-⑧-|
64
①口口⑤ |①-②-|
④口口⑧ |③-④-|
②③⑦⑥ |⑤-⑥-|
口①⑤口 |⑦-⑧-|
65
口①①口 |①-②-|
口口口口 |③-④-|
②③⑥⑤ |⑤-⑥-|
④口⑧⑦ |⑦-⑧-|
66
①口④① |--①-|
口口口④ |--②③|
②③口⑤ |④---|
口口⑤口 |⑤---|
67
①口⑥⑤ |①-②-|
口①⑧⑦ |③-④-|
④口①口 |⑤-⑥-|
②③口① |⑦-⑧-|
68
①口口⑤ |①-②-|
②③⑦⑥ |③-④-|
④口口⑧ |⑤-⑥-|
口⑤①口 |⑦-⑧-|
69
②③⑥⑤ |①-②-|
④口⑧⑦ |③-④-|
口①①口 |⑤-⑥-|
口口口口 |⑦-⑧-|
70
②口口口 |①---|
口②口③ |----|
②口③口 |②---|
口①①③ |③---|
71
⑦②③① |①-②-|
口④口口 |③-④-|
口口口口 |⑤-⑥-|
①⑥⑤⑦ |⑦---|
72
口③②① |①---|
口口口口 |--②-|
②口口③ |----|
①口口口 |③---|
73
⑧口口④ |①-②-|
口⑦③口 |③-④-|
口②⑥口 |⑤-⑥-|
①口口⑤ |⑦-⑧-|
74
口③③口 |①-②-|
①口口② |--③-|
①⑤④② |④---|
口③③口 |⑤---|
75
∨口口② |①-②-|
|口③⑧ |③-④-|
|口⑦④ |⑤-⑥-|
①口⑤⑥ |⑦-⑧-|
76
口④③② |①-②-|
①口口口 |③-④-|
口⑤⑧⑦ |⑤-⑥-|
①口⑥⑤ |⑦-⑧-|
77
∨口③② |①-②-|
|口⑤④ |③-④-|
|口口口 |⑤-⑥-|
①⑧⑦⑥ |⑦-⑧-|
78
⑤⑦⑤口 |①-②-|
②③④⑥ |③-④-|
⑦⑤⑦口 |⑤-⑥-|
①口口⑧ |⑦-⑧-|
79
口口口口 |①-②-|
②③④口 |③-④-|
口口口口
―①口

口口口口
口口口口
⑧⑦⑥⑤ |⑤-⑥-|
口口⑥口 |⑦-⑧-|
80
口②③④ |①-②-|
⑧⑦⑥⑤ |③-④-|
口口口口 |⑤-⑥-|
①⑤口口 |⑦-⑧-|
81
④口∨口 |①-②-|
口口|口 |③-④-|
②③|口
口口①口

口⑤口口
口⑥⑦⑧
口口口口 |⑤-⑥-|
口口口口 |⑦-⑧-|
82
口口口① |①---|
口口口口 |----|
③②口口 |②---|
②③①口 |③---|
83
②口①① |①-②-|
④③|| |③-④-|
⑥⑤|| |⑤-⑥-|
⑧⑦∧∧ |⑦-⑧-|
84
②口①① |①-②-|
④③⑤⑤ |③-④-|
⑥⑤①① |⑤-⑥-|
⑧⑦口口 |⑦-⑧-|
85
口②∨∨ |①-②-|
③④|| |③-④-|
⑤⑥|| |⑤-⑥-|
⑦⑧①① |⑦-⑧-|
86
①①口② |①-②-|
口口③④ |③-④-|
⑤⑤⑧⑥ |⑤-⑥-|
⑦⑦①① |⑦-⑧-|
87
②口①① |①-②-|
④③|| |③-④-|
⑥⑤|| |⑤-⑥-|
⑧⑦∧∧ |⑦-⑧-|
88
②①口口 |①-②-|
④③口口 |③-④-|
⑥⑤口口 |⑤-⑥-|
⑧⑦口口 |⑦-⑧-|
89
①①①① |①-②-|
口口②口 |③-④-|
⑧④③⑦ |⑤-⑥-|
口⑥⑤口 |⑦-⑧-|
90
①口口∨ |①---|
|口口|
|口口|
∧口口①

②∨③口
口||口 |--②-|
口||口 |③---|
口③∧②

口口④口
口口口口
口口口口
口④口口 |--④-|
91
口①口口 |①---|
口>∨① |----|
①∧<口 |----|
口口①口 |----|
92
口口口口 |----|
口口口口 |----|
口口口口 |----|
口口口口 |----|
93
口①口口 |①---|
口①口① |----|
①口①口 |----|
口口①口 |----|
94
口①口口 |①---|
①①①口 |----|
口①口口 |----|
口口口口 |----|
最終更新:2019年11月01日 22:46