アットウィキロゴ
1
⑤④③② |①--②|
⑥□⑧⑦ |③④⑤-|
①⑩⑨□ |-⑥-⑦|
□⑪□□ |⑧⑨⑩⑪|
2
⑦⑥⑤④ |-①--|
□②□□ |-②-③|
□□□□ |---④|
③□①□ |⑤⑥⑦-|
3
⑩□□□ |-①-②|
②③⑨① |③④⑤⑥|
⑧④⑤□ |-⑦--|
□⑦⑥□ |⑧⑨-⑩|
4
□②①□ |---①|
④③⑦⑥ |②③④-|
□⑨⑧□ |-⑤-⑥|
□⑩□⑤ |⑦⑧⑨⑩|
5
⑥□⑧□ |①②--|
④⑦□⑨ |③④-⑤|
②□□⑤ |⑥⑦⑧⑨|
①□③□ |----|
6
□③□① |-①②③|
④⑪②□ |④--⑤|
⑩⑥⑦□ |-⑥⑦-|
⑤⑨□⑧ |⑧⑨⑩⑪|
7
⑤④③② |①--②|
⑥□⑧⑦ |③④⑤-|
□⑩⑨① |-⑥-⑦|
□⑪□□ |⑧⑨⑩⑪|
8
⑦⑥⑤④ |-①--|
□②□□ |-②-③|
□□□□ |---④|
③□①□ |⑤⑥⑦-|
9
⑪□□□ |-①-②|
②③⑩① |③④⑤⑥|
⑨④⑤⑧ |-⑦⑧-|
□⑦⑥□ |⑨⑩-⑪|
10
□③②① |①--②|
⑤④⑧⑦ |③④⑤-|
□⑩⑨□ |-⑥-⑦|
□⑪□⑥ |⑧⑨⑩⑪|
11
⑥⑦□⑤ |①②--|
④⑧⑨□ |③④-⑤|
②□□□ |⑥⑦⑧⑨|
①□③□ |----|
12
□□③⑥ |-①--|
□□④② |---②|
□□⑤① |--③④|
□□⑤□ |⑤⑥--|
13
②□□□ |①--②|
③⑦⑧□ |③④⑤-|
④①⑨⑩ |-⑥-⑦|
⑤⑥□⑪ |⑧⑨⑩⑪|
14
⑦⑥⑤④ |-①--|
□□□② |-②-③|
③①□□ |---④|
□□□□ |⑤⑥⑦-|
15
⑪□□□ |-①-②|
②③⑩□ |③④⑤⑥|
⑨④⑤⑧ |-⑦⑧-|
①⑦⑥□ |⑨⑩-⑪|
16
□③②① |①--②|
⑤④□□ |③④⑤-|
⑦⑧⑪□ |-⑥-⑦|
□⑨⑩⑥ |⑧⑨⑩⑪|
17
③□④⑤ |①②--|
⑧⑥□② |③④-⑤|
⑦□□① |⑥--⑦|
□□□□ |--⑧-|
18
□②④□ |-①-②|
□□□□ |---③|
□①□□ |--④-|
□③⑤□ |-⑤--|
19
□④□② |①--②|
⑧□⑩□ |③④⑤-|
⑤⑨③⑪ |-⑥-⑦|
①⑥□⑦ |⑧⑨⑩⑪|
20
②⑧□⑥ |-①②-|
□①□③ |-③-④|
⑨□⑦□ |⑤--⑥|
⑤□④□ |⑦⑧⑨-|
21
⑧□□□ |-①-②|
③⑦⑤⑨ |③④⑤⑥|
□④□⑥ |-⑦⑧-|
□①⑩② |-⑨-⑩|
22
④□□① |①--②|
□⑦□⑤ |--③-|
□□⑥□ |-④--|
③□□② |⑤-⑥⑦|
23
□⑦①⑧ |-①②③|
⑥□□⑨ |④⑤⑥⑦|
⑤□□② |⑧---|
□④③□ |--⑨-|
24
□②□□ |----|
②□□□ |①--②|
□②□① |----|
③□□③ |-③--|
最終更新:2024年05月10日 19:08