アットウィキロゴ
Four Leaves
Endorfin.

EXTREME

Level: 9
BPM: 181
Notes: 623

1
口口口口 |----|
口口口口 |----|
口口口口 |----|
口口口口 |----|
2
口口口∨ |①---|
口口口|
口口口①
口口口口

口口口口
口口∨口 |②---|
口口|②
口口②口

口∨口口
口|口口
口③口口 |③---|
口口③口

口口口口
∨口④口
|④口口
⑤口口口 |④-⑤-|
3
口口∨口 |--①-|
口口|口
口口①口
①口口口

口口口口
口②口∨ |--②-|
口口②| |③---|
口口口③

口口口口
④口口口
口口口口
口口口④ |④---|
4
口口口∨ |①---|
口口口|
口口口①
口口口口

口口口口
口口∨口 |②---|
口口|②
口口②口

口∨口口
口|口口
口③口口 |③---|
口口③口

口口口口
∨口④口
|④口口
⑤口口口 |④-⑤-|
5
∨∨∨∨ |--①-|
|||| |--②-|
⑤④③② |③-④-|
①口口① |⑤---|
6
口③④口 |①---|
⑤口②⑥ |②---|
①①①① |③-④-|
口①口口 |⑤-⑥-|
7
⑤口口⑥ |①-②-|
口⑦⑧口 |③-④-|
①⑨⑩② |⑤⑥⑦⑧|
⑪③④⑫ |⑨⑩⑪⑫|
8
⑦①⑤口 |①-②-|
①⑦⑥② |③-④-|
④口口③ |⑤-⑥-|
口④口口 |⑦---|
9
口③口② |--①-|
口口口口 |②-③-|
口①⑤④ |④-⑤-|
⑥⑦口口 |⑥-⑦-|
10
④⑤口口 |①-②-|
口口③口 |③-④⑤|
①②口口
口口口口

口口⑥⑦
⑫口口口
⑫口口口 |⑥⑦⑧⑨|
⑧⑨⑩⑪ |⑩⑪⑫-|
11
口口口口 |----|
口口①口 |--①-|
口②口③ |②---|
口口④口 |③-④-|
12
④②④口 |----|
口口①口 |①-②-|
口口口口 |--③-|
③口口口 |--④-|
13
口口口口 |----|
口①口口 |①-②-|
③口②口 |----|
口④口口 |③-④-|
14
口口口口 |----|
口②④口 |--①-|
口③①口 |②---|
口口口口 |③-④-|
15
②口①口 |----|
口口口口 |----|
①口②口 |----|
口口口口 |①-②-|
16
口口口口 |----|
口①口② |①-②-|
③口④口 |----|
口②口① |③-④-|
17
①口口口 |----|
口口口② |----|
③口口口 |--①-|
口口口口 |②-③-|
18
口口④口 |①---|
④②口口 |--②-|
口口③④ |③---|
口④口① |--④-|
19
口口口口 |----|
口⑤②口 |①-②-|
口③④④ |③---|
①口口口 |④-⑤-|
20
⑦④⑦口 |①---|
口口③口 |②-③-|
②口口口 |④-⑤-|
⑥②①⑤ |⑥-⑦-|
21
口口口口 |----|
口口①口 |①-②-|
③口②① |----|
③④口口 |③-④-|
22
口口口口 |----|
口③⑤口 |①-②-|
口④②口 |③---|
口④①口 |④-⑤-|
23
口口口口 |①---|
口口口③ |②---|
口④口② |③---|
④口⑤① |④-⑤-|
24
口口口口 |①---|
口⑤②口 |②-③-|
③口④口 |④---|
⑤①⑥② |⑤-⑥-|
25
口口口口 |①---|
口口口口 |②---|
口①③口 |③---|
④口⑤② |④-⑤-|
26
口∨∨③ |--①-|
口④④② |--②-|
口口口① |--③-|
口口口口 |--④-|
27
①口口① |----|
口①①口 |----|
口①①口 |----|
口口口口 |①---|
28
口①口口 |----|
口④④口 |--①-|
③∧∧口 |②---|
口口②口 |③-④-|
29
口①①口 |----|
口①①口 |----|
①口口① |----|
口口口口 |①---|
30
口口口口 |----|
口口口口 |--①-|
口口②口 |②---|
口①口口

口口口口
口口∨口
口③|口
口口④口 |③-④-|
31
②口口口 |----|
口口口口 |----|
口口口口 |①---|
口口①③ |②-③-|
32
口口口口 |----|
口③②① |①-②-|
口口④口 |③---|
口口口口 |④---|
33
⑦①⑤⑦ |①-②-|
①口⑥口 |③-④-|
④口口② |⑤-⑥-|
口④口③ |⑦---|
34
口③口口 |----|
口口口口 |----|
口口口② |①-②-|
口口口① |--③-|
35
⑥口口③ |①---|
口口口口 |②---|
口④⑤口 |③-④-|
口②①口 |⑤-⑥-|
36
口口口口 |①-②-|
⑧④②⑥ |③-④-|
口口口口 |⑤-⑥-|
③⑦⑤① |⑦-⑧-|
37
口∨口口 |①---|
口|口口 |②---|
口①口②
口口口①

口口口④
口口口③
口⑤口口 |③---|
口口口口 |④-⑤-|
38
口⑤口口 |①---|
④口⑥口 |②-③-|
②口③口 |④---|
①口口口 |⑤-⑥-|
39
③⑪⑫④ |①②③④|
⑦⑮口⑧ |⑤⑥⑦⑧|
⑬⑤⑥⑭ |⑨⑩⑪⑫|
⑨①②⑩ |⑬⑭⑮-|
40
①③③口 |----|
口③③口 |①---|
③口口③ |--②-|
口口②口 |--③-|
41
口口口① |--①-|
口口⑦⑤ |②-③-|
口②④口 |④-⑤-|
口⑥口③ |⑥-⑦-|
42
①口③口 |--①-|
④口口③ |--②-|
口④口口 |--③-|
②口④口 |--④-|
43
⑤口⑤② |①---|
口③①口 |②-③-|
口口③口 |--④-|
口④口④ |--⑤-|
44
口①④④ |----|
①③口④ |--①-|
口口③② |②-③-|
口口②口 |--④-|
45
①口口口 |----|
口④口口 |①-②-|
口口口⑤ |③---|
③口⑤② |④-⑤-|
46
口③②口 |----|
③口口② |①---|
①口口口 |②---|
口①口口 |③---|
47
⑧⑧⑦⑦ |①-②-|
⑧④④⑦ |③-④-|
⑤①①② |⑤-⑥-|
⑥口口③ |⑦-⑧-|
48
口口口口 |----|
口①口④ |--①-|
口口④③ |②--③|
口④③② |--④-|
49
口①口口 |①---|
①口③口 |②-③-|
口口口口
②口口③

⑤⑤口口
⑤口口口
口口口④ |--④-|
口口④口 |--⑤-|
50
口口①口 |----|
口②口① |①---|
口口②口 |②---|
③③口口 |③---|
51
②①口⑤ |①---|
口口①⑤ |②-③-|
④①口口 |--④-|
口口④③ |--⑤-|
52
口口口口 |--①-|
①口②口 |②---|
口①口② |----|
③口口口 |③---|
53
口①①口 |①---|
口②②口 |②-③-|
⑥④④③ |④---|
口⑤⑤口 |⑤-⑥-|
54
口①①口 |①---|
口②②口 |②---|
口③③② |③---|
③④④④ |④---|
55
⑨⑨③② |①-②③|
④⑧口⑥ |④⑤⑥⑦|
①⑤⑦⑩ |⑧--⑨|
口口口⑩ |--⑩-|
56
口③②口 |--①-|
③④④② |--②-|
①口口口 |--③-|
①口口口 |--④-|
57
⑦口⑧⑧ |--①②|
口口⑨⑨ |③④⑤⑥|
③口⑥⑤ |⑦--⑧|
口④②① |--⑨-|
58
③②口口 |--①-|
②③口口 |--②-|
口口口口 |--③-|
①①口口 |----|
59
口口②口 |①---|
口口⑤④ |②-③-|
口①①口 |--④-|
口③④⑤ |--⑤-|
60
①②⑧⑦ |--①②|
⑨⑩口⑫ |③④⑤⑥|
口口④③ |⑦⑧⑨⑩|
⑤⑥口⑪ |⑪-⑫-|
61
①①④⑤ |--①-|
口口口④ |②---|
②②⑤③ |③--④|
口口③口 |--⑤-|
62
⑤口口口 |--①-|
口口②口 |②-③-|
口④口口 |④--⑤|
③①口口 |----|
63
口①①口 |①---|
口口口口 |②-③-|
④口口② |----|
口⑤③口 |④-⑤-|
64
①②③口 |①---|
口口口口 |--②-|
口⑤口口 |--③-|
口口④口 |④-⑤-|
65
⑤⑤口口 |①---|
①口口② |②-③-|
口口③口 |--④-|
④④口口 |--⑤-|
66
口口口口 |①②③④|
⑧②①⑦ |⑤⑥⑦⑧|
④⑥⑤③
口口口口

⑫⑭⑬⑪
口口⑮口
口口口口 |⑨⑩⑪⑫|
口⑩⑨口 |⑬⑭⑮-|
67
口口口口 |--①-|
口⑥口⑤ |②-③-|
①②⑦④ |④-⑤-|
口口口③ |⑥-⑦-|
68
④③①口 |--①-|
口口口口 |--②-|
口②口口 |--③-|
口口口口 |--④-|
69
口口口口 |----|
口口①口 |①-②-|
口②口口 |--③-|
口④③口 |--④-|
70
口口口口 |----|
口④口口 |--①-|
①②③口 |②-③-|
口口口口 |--④-|
71
口③②① |----|
口口口口 |①-②-|
口口口⑤ |③---|
口④口口 |④-⑤-|
72
⑬⑦⑧⑭ |①②③④|
⑨①②⑩ |⑤⑥⑦⑧|
⑮⑤⑥⑯ |⑨⑩⑪⑫|
③⑪⑫④ |⑬⑭⑮⑯|
73
口④④口 |①-②-|
⑧①①⑦ |③-④-|
口⑤②口 |⑤-⑥-|
⑥⑧⑦③ |⑦-⑧-|
74
口口口口 |----|
口①口④ |--①-|
口口④③ |②--③|
口④③② |--④-|
75
口①口口 |①---|
①口③口 |②-③-|
口口口口
②口口③

⑤⑤口口
⑤口口口
口口口④ |--④-|
口口④口 |--⑤-|
76
口口①口 |----|
口②口① |①---|
口口②④ |②---|
③③口口 |③-④-|
77
⑤①②⑥ |①---|
口③①⑥ |②---|
⑤口口口 |③-④-|
口口④④ |⑤-⑥-|
78
口口口口 |----|
口口口口 |①---|
口①②口 |②---|
③口口口 |③---|
79
口①①口 |①---|
口②②③ |②-③-|
⑥④④口 |④---|
口⑤⑤口 |⑤-⑥-|
80
①口口口 |①---|
口②口口 |--②-|
口口③口 |--③-|
口④④④ |④---|
81
①①①口 |①---|
口②②③ |②-③-|
口④④口 |④---|
⑤⑤⑤口 |⑤---|
82
⑦①②⑧ |①②③④|
⑮⑤⑥⑯ |⑤⑥⑦⑧|
③⑨⑩④ |⑨⑩⑪⑫|
⑪⑬⑭⑫ |⑬⑭⑮⑯|
83
口①口口 |①---|
口口口口 |----|
口口口口 |----|
口口口口 |----|
84
口口①口 |①---|
口口口口 |----|
口口口口 |----|
口口口口 |----|
85
口口口口 |①---|
口口口口 |----|
口口口口 |----|
口①口口 |----|
86
口口口口 |①---|
④②⑤③ |----|
②④③⑤ |②-③-|
口口①口 |④-⑤-|
最終更新:2019年11月01日 22:47