アットウィキロゴ
crêpe suzette
kamome sano

EXTREME

Level: 10.2
BPM: 202
Notes(hold): 744(31)

1
口口口口 |----|
口口口口 |----|
口口口口 |----|
口口口口 |----|
2
口⑦口口 |①-②-|
⑤口②① |③-④-|
口口⑥口 |--⑤-|
口③④口 |⑥-⑦-|
3
口口③口 |--①-|
口⑤④① |②-③-|
口②口口 |--④-|
口口⑥口 |⑤-⑥-|
4
⑥③⑦口 |--①-|
口口口口 |②-③-|
④①②口 |--④-|
口口⑤口 |⑤-⑥⑦|
5
口④口③ |--①-|
口口口口 |②-③④|
口口⑤① |----|
口②口口 |⑤---|
6
口⑦口口 |①-②-|
⑤口②① |③-④-|
口口⑥口 |--⑤-|
口③④口 |⑥-⑦-|
7
④口口口 |--①②|
口①②③ |③-④-|
口口⑤口 |--⑤-|
口⑥⑦口 |⑥-⑦-|
8
口⑤②口 |--①-|
①口口④ |②-③-|
口③⑥口 |--④-|
口口口口 |⑤-⑥-|
9
②口口① |----|
口口口口 |----|
口口口口 |①---|
口口口口 |②---|
10
口口⑦⑦ |①-②-|
⑤口②① |③-④-|
口⑥口口 |--⑤-|
口③④口 |⑥-⑦-|
11
③③口口 |--①-|
口⑤④① |②-③-|
口口②口 |--④-|
口⑥⑥口 |⑤-⑥-|
12
⑥口⑦口 |--①-|
③口口③ |②-③-|
④①②口 |--④-|
口口⑤口 |⑤-⑥⑦|
13
口④口③ |--①-|
口口口口 |②-③④|
口口⑤① |----|
口②口口 |⑤---|
14
口口⑦⑦ |①-②-|
⑤口②① |③-④-|
口⑥口口 |--⑤-|
口③④口 |⑥-⑦-|
15
④④口口 |--①②|
口①②③ |③-④-|
口口⑤口 |--⑤-|
口⑥⑦口 |⑥-⑦-|
16
口口口③ |--①-|
②口口口 |②-③-|
口①口口
口口口口

∨⑤口口
|口④口
⑥口口口 |--④-|
口口口口 |⑤-⑥-|
17
口口口口 |----|
口口口口 |----|
口口口口 |----|
口口口口 |----|
18
口口口口 |----|
口口口口 |----|
口口口口 |----|
口口口口 |----|
19
口口口口 |----|
口口口口 |----|
口口口口 |----|
口口口口 |----|
20
口口口口 |----|
口口口口 |----|
口口口口 |----|
口口口口 |----|
21
口口口口 |①---|
口④①口 |②---|
口③②口 |③---|
口口口口 |④---|
22
口口口口 |①---|
口④①口 |②---|
口③②口 |③---|
口口口口 |④---|
23
口口口口 |①---|
口④①口 |②---|
口③②口 |③---|
口口口口 |④---|
24
口口口口 |①---|
①><① |----|
①口口口
口口口口

口口③口
②④口②
口口⑤口 |②---|
②⑥口② |③④⑤⑥|
25
②⑥口⑤ |①-②-|
⑥口③口 |③-④-|
①④⑦① |--⑤-|
口口③口 |⑥-⑦-|
26
④口②口 |--①-|
⑤①口② |②-③-|
口⑥口口 |--④-|
③口口口 |⑤-⑥-|
27
口口口④ |①-②-|
口口口③ |③-④-|
口口②口
口①①口

⑦―<口
口⑤⑥口
口⑥口口 |--⑤-|
口>―⑦ |⑥-⑦-|
28
①②口口 |--①-|
口口口① |②-|
①口口口
口口②①

口>―③
口口口口 |③-|
口口口口
③―<口

口口口④
口④口口
口口④口 |----|
④口口口 |④---|
29
②⑥口⑤ |①-②-|
⑥口③口 |③-④-|
①④口① |--⑤-|
口口③⑦ |⑥-⑦-|
30
①⑤②④ |--①-|
⑤口口② |②-③-|
口口口口 |--④-|
③口口⑥ |⑤-⑥-|
31
①口口⑦ |--①-|
口②⑤口 |②-③-|
口⑥③口 |④-⑤-|
口口④口 |⑥-⑦-|
32
③④④口 |①-②-|
①口口② |③-④-|
②口口①
口④④③

口口口口
⑩⑥⑦口
口⑧⑤⑨ |--⑤⑥|
口口口口 |⑦⑧⑨⑩|
33
②⑥④⑤ |①-②-|
口口⑦① |③-④-|
①⑥口口 |--⑤-|
口③③口 |⑥-⑦-|
34
④口②口 |--①-|
⑤①口② |②-③-|
口⑥口口 |--④-|
③口口口 |⑤-⑥-|
35
口口口④ |①-②-|
口口口③ |③-④-|
口口②口
口①①口

⑦―<口
口⑤⑥口
口⑥口口 |--⑤-|
口>―⑦ |⑥-⑦-|
36
①②口口 |--①-|
口口口① |②-|
①口口口
口口②①

口>―③
口口口口 |③-|
口口口口
③―<口

口口口④
口④口口
口口④口 |----|
④口口口 |④---|
37
③口⑥口 |①-②-|
②⑤③⑥ |③-④-|
①④口① |--⑤-|
⑦⑦③口 |⑥-⑦-|
38
口②口① |--①-|
②④口口 |②-③-|
口⑤口口 |--④-|
口⑥③③ |⑤-⑥-|
39
⑨③⑩① |--①-|
③⑤⑥⑩ |②-③-|
口⑦④口 |④⑤⑥⑦|
②口口⑧ |⑧⑨⑩-|
40
口②口③ |--①-|
④⑤⑥口 |②-③-|
①口⑤② |④-⑤-|
③①④口 |⑥---|
41
口口⑦⑧ |①-②-|
口口口① |③-④-|
口⑥口③ |⑤-⑥-|
④⑤口② |⑦-⑧-|
42
①②口口 |①-②-|
⑥⑧⑦③ |③-④-|
⑤⑩⑨④ |⑤-⑥-|
口口口口 |⑦⑧⑨⑩|
43
⑦④口⑤ |①-②-|
⑧口口口 |③-④-|
⑨口口⑥ |⑤-⑥-|
⑩③②① |⑦⑧⑨⑩|
44
口口②口 |①-②-|
口④⑤⑥ |--③-|
⑨⑧⑦口 |④-⑤-⑥-|
口③①① |⑦-⑧-⑨-|
45
口口口① |①-②-|
口口口口 |③-④-|
口口口③
④口口②

口口⑦⑧
⑥口口口
口口口口 |⑤-⑥-|
口⑤口口 |⑦-⑧-|
46
①②口⑩ |①-②-|
口④③⑧ |③④⑤⑥|
口⑥⑤⑨ |⑦-⑧-|
口口口⑦ |⑨-⑩-|
47
口①口口 |①-|
口|口口
口|口口
口∧口口

口②∨口 |②-|
口口|口 |③-|
口口|口
口口③口

口口口口
⑤――< |④-|
口口口口 |⑤-|
口口④口

口口口口
⑥口口口
口⑨⑧口 |⑥-|
口⑦口口 |⑦-⑧⑨|
48
口口口口 |①---|
口③②口 |--②③|
①口口口
口口口口

⑤口④⑤
口口口口
⑥口口口 |④-⑤-|
口口口口 |--⑥-|
49
口口⑥⑦ |--①-|
口口口口 |②-③-|
口⑤口② |④-⑤-|
③④口① |⑥-⑦-|
50
①②口口 |①-②-|
⑥⑧⑦③ |③-④-|
⑤⑩⑨④ |⑤-⑥-|
口口口口 |⑦⑧⑨⑩|
51
⑤口④③ |①-②-|
⑥口口口 |③-④-|
⑧口口口 |⑤-⑥-|
⑦口②① |⑦-⑧-|
52
口①口口 |①-|
口|口口
口|口口
口∧口口

口②∨口 |②-|
口口|口 |③-|
口口|口
口口③口

口口口口
口⑤⑥⑦ |④-|
⑩⑨⑧口 |⑤-⑥-⑦-|
口口④口 |⑧-⑨-⑩-|
53
口口口① |①-②-|
口口口口 |③-④-|
口口口③
④口口②

口口⑦⑧
⑥口口口
口口口口 |⑤-⑥-|
口⑤口口 |⑦-⑧-|
54
①②口⑩ |①-②-|
口④③⑧ |③④⑤⑥|
口⑥⑤⑨ |⑦-⑧-|
口口口⑦ |⑨-⑩-|
55
口②③口 |①---|
①口口口 |②-③-|
①口口口
口口口口

口口口口
>――⑥
>――⑥ |--④-|
口⑤④口 |⑤-⑥-|
56
口①口口 |----|
口|口① |----|
口|口① |①-|
口∧口口

口②∨口
口口|口
口口|口 |②-|
口口③口 |③-|

口口口口
口口口口
口口口口
口口④口 |④-|
57
①⑤口口 |①-②-|
口③⑦⑦ |③-④-|
②⑧⑥⑥ |⑤-⑥-|
口④口口 |⑦-⑧-|
58
口口②② |①---|
③④口口 |②---|
口口⑥⑤ |③-④-|
口口①① |⑤-⑥-|
59
②⑤⑥⑦ |①-②-|
口口口④ |③---|
口⑤⑥⑦ |④-⑤-|
③①①口 |⑥-⑦-|
60
口口⑧口 |①-②-|
④③②⑥ |③-④-|
①口⑦口 |⑤-⑥-|
④③②⑤ |⑦-⑧-|
61
口①口口 |①-②-|
口②口口 |③-④-|
口③口口
口④口口

⑦⑧口口
口口口口
⑤口⑥⑤ |⑤-⑥-|
口口口口 |⑦-⑧-|
62
口口口口 |①---|
口口②口 |②-③-|
口③口口
①口口①

口口④⑤
口口口口
口口口口 |④-⑤-|
⑦⑥口口 |⑥-⑦-|
63
③⑥口口 |①-②-|
①④⑦① |③-④-|
②⑤⑧④ |⑤-⑥-|
口口口⑦ |⑦-⑧-|
64
口口①③ |①-②-|
④口口④ |--③-|
口⑦⑥⑤ |④-⑤-|
口②②口 |⑥-⑦-|
65
口①①口 |①---|
口②口口 |----|
口口③口 |--②-|
口口口口 |--③-|
66
口口口口 |----|
口口①口 |----|
口口口口 |①---|
口口口口 |----|
67
口口口口 |----|
口③②口 |①---|
口口口口 |--②-|
口①口口 |--③-|
68
口口口口 |----|
口口①口 |----|
口口②口 |①---|
口口口口 |②---|
69
口口口口 |①---|
口口③口 |----|
口②口口 |--②-|
口口①口 |--③-|
70
口口口口 |----|
口口口口 |----|
口口①口 |①---|
口口口口 |----|
71
口口口口 |①---|
口③②口 |----|
口①口口 |--②-|
口口口口 |--③-|
72
口口口口 |----|
口口②口 |----|
口口①口 |①---|
口口口口 |②---|
73
②①①口 |①---|
口③口口 |----|
口口④口 |--②-|
口口口口 |③-④-|
74
口口口口 |----|
口口口口 |----|
口①口口 |①---|
口口口口 |----|
75
口⑧口⑤ |①-②-|
口口⑥口 |③-④-|
④⑦口① |⑤-⑥-|
口③②口 |⑦-⑧-|
76
口口口口 |----|
口口口口 |----|
口口①① |①---|
口②口口 |②---|
77
④④②口 |①---|
①①口口 |--②-|
口口③口 |--③-|
口口口口 |④---|
78
口③口口 |--①-|
口口②② |----|
口口口口 |②---|
口①口口 |--③-|
79
口口②② |--①-|
口口口口 |②---|
口①口口 |--③-|
口口③口 |----|
80
∨口口口 |①---|
|④①口 |②---|
|③②口 |③---|
①口口口 |④---|
81
口口口口 |①---|
口④①口 |②---|
口③②口 |③---|
口口口口 |④---|
82
口口口① |①---|
口④①∧ |②---|
口③②口 |③---|
口口口口 |④---|
83
口⑧⑥① |①-②-|
⑧⑦⑤口 |③-④-|
⑥⑤④③ |⑤-⑥-|
①口③② |⑦-⑧-|
84
⑥口口① |①-②-|
口口⑦③ |③-④-|
口④口口 |--⑤-|
①⑤②⑥ |⑥-⑦-|
85
⑤口口② |--①-|
口③⑥口 |②-③-|
口口口口 |--④-|
口④①口 |⑤-⑥-|
86
⑤口口② |--①-|
口③口口 |②-③-|
口口⑥口 |--④-|
②④①⑤ |⑤-⑥-|
87
口①口③ |--①-|
口④⑤⑥ |②-③-|
⑨⑧⑦③ |④-⑤-⑥-|
口口②口 |⑦-⑧-⑨-|
88
①口③⑥ |①-②-|
④⑦口口 |③-④-|
口口口口 |--⑤-|
⑥②⑤① |⑥-⑦-|
89
③口口口 |--①-|
口口④② |②-③-|
口口⑤口 |--④-|
口①⑥③ |⑤-⑥-|
90
口①②③ |①②③-|
口口口口 |④-⑤-|
口⑤口口
口④口口

⑧――<
口口口口
⑥口口口 |⑥-⑦-|
⑦口口口 |⑧-|

⑨口口口
口口口口
口口口口
口口口口 |⑨-|
91
⑧②⑦⑤ |①-②-|
①口③口 |③-④-|
⑦④口① |⑤-⑥-|
⑥⑥③口 |⑦-⑧-|
92
口③口④ |①-②-|
⑥①⑤口 |③-④-|
⑦口口③ |⑤-⑥-|
⑧口②② |⑦-⑧-|
93
①③口口 |①-②-|
口口④① |③-④-|
口③②口
口口口①

⑧口口⑦
口⑤口口
口口口口 |⑤-⑥-|
口⑥口⑧ |⑦-⑧-|
94
口口口口 |①-②-|
②口③口 |③-|
口口口②
①口口口

口口④口
口>┼④ |④-|
口口∧口
口口口口

口⑥⑦口
口口口⑦
口⑤⑦口 |⑤-⑥-|
口⑦口口 |⑦---|
95
③口⑦⑤ |①-②-|
②⑥③⑦ |③-④-|
①④口① |⑤-⑥-|
⑧⑧③口 |⑦-⑧-|
96
⑦③口⑤ |①-②-|
③⑥②口 |③-④-|
⑧<口① |⑤-⑥-|
>⑧④④ |⑦-⑧-|
97
口口③口 |①-②-|
口口口② |③-④-|
口口④①
口口口口

口口口⑦
口⑤⑥口
⑥口>⑧ |⑤-⑥-|
口⑥⑧< |⑦-⑧-|
98
①③口口 |①-②-|
②口口口 |③-④-|
口④口口
口口口口

⑧口口⑧
口口⑤口
口口⑦⑥ |⑤-⑥-|
口⑥⑥口 |⑦-⑧-|
99
口⑥⑤口 |①②③④|
④口⑦① |⑤⑥⑦⑧|
口⑧口口
②口口③

口口口口
口⑫口口
⑩口⑪⑨ |⑨⑩⑪⑫|
口⑭⑬口 |⑬⑭|

⑮><⑮
口口口口
口口口口
口口口口 |⑮-|
100
口口口口 |----|
口口口口 |----|
口口口口 |----|
口口口口 |----|
101
①口口① |----|
口口口口 |----|
口口口口 |----|
口口口口 |①---|
最終更新:2019年11月25日 03:51