アットウィキロゴ
月風魔伝 ~ ビーストメドレー ~
Akhuta

BASIC

Level: 4
BPM: 170
Notes: 326

1
口口口口 |----|
口口口口 |----|
口口口口 |----|
口口口口 |----|
2
口口口口 |①---|
②口口② |----|
口①①口 |②---|
口口口口 |----|
3
口口口口 |①---|
口②②口 |----|
①口口① |②---|
口口口口 |----|
4
口口口口 |①---|
②口口② |----|
口①①口 |②---|
口口口口 |----|
5
口口口口 |①---|
口②②口 |----|
①口口① |②---|
口口口口 |----|
6
口口口口 |①---|
②口口② |----|
口①①口 |②---|
口口口口 |----|
7
口口口口 |①---|
口②②口 |----|
①口口① |②---|
口口口口 |----|
8
口口口口 |①---|
②口口② |----|
口①①口 |②---|
口口口口 |----|
9
口口口口 |①---|
口②②口 |----|
①口口① |②---|
口口口口 |----|
10
①①①① |①---|
口口口口 |----|
口口口口 |----|
口口口口 |----|
11
口口口口 |①---|
口②①口 |②---|
口③④口 |③---|
口口口口 |④---|
12
口口口口 |①---|
口口口口 |②---|
④口口口 |③---|
③②①口 |④---|
13
口口口口 |①---|
口①②口 |②---|
口④③口 |③---|
口口口口 |④---|
14
口口口口 |①---|
口口口口 |②---|
口口口④ |③---|
口①②③ |④---|
15
口口口口 |①---|
①口口① |--②-|
口②②口 |----|
③口口③ |③---|
16
口④④口 |①---|
口③③口 |②---|
口②②口 |③---|
口①①口 |④---|
17
①口口① |①---|
口口②口 |----|
口口③口 |②---|
口口口口 |③---|
18
口口口口 |①---|
口②口口 |----|
口③口口 |②---|
口口①口 |③---|
19
口口口口 |①---|
口口口② |----|
口口口③ |②---|
口①口口 |③---|
20
口口口口 |①---|
②口口口 |----|
③口口口 |②---|
口口口① |③---|
21
口口口口 |①---|
口口②口 |----|
口口③口 |②---|
①口口口 |③---|
22
口口口口 |①---|
口②口口 |----|
口③口口 |②---|
口口①口 |③---|
23
口口口口 |①---|
口口口口 |----|
②口口② |②---|
口①口口 |----|
24
口①①口 |①---|
口②②口 |②---|
口③③口 |③---|
口④④口 |④---|
25
①口口① |①---|
口口②口 |----|
口口③口 |②---|
口口口口 |③---|
26
口口口口 |①---|
口②口口 |----|
口③口口 |②---|
口口①口 |③---|
27
口口口口 |①---|
口口口② |----|
口口口③ |②---|
口①口口 |③---|
28
口口口口 |①---|
②口口口 |----|
③口口口 |②---|
口口口① |③---|
29
口口口口 |①---|
口口②口 |----|
口口③口 |②---|
①口口口 |③---|
30
口口口口 |①---|
口②口口 |----|
口③口口 |②---|
口口①口 |③---|
31
口口口口 |①---|
口口口口 |----|
②口口② |②---|
口①口口 |----|
32
口口④④ |①---|
口①①口 |②---|
口②②口 |③---|
口③③口 |④---|
33
①①口口 |①---|
口③②口 |----|
口口口口 |②---|
口口口口 |③---|
34
③③口口 |①---|
口口口口 |②---|
口②①口 |----|
口口口口 |③---|
35
口口①① |①---|
口②口口 |②---|
口④③口 |③---|
口口口口 |④---|
36
口口口口 |①---|
口口口口 |②---|
口口口口 |----|
口②①口 |----|
37
口口口口 |①---|
口①①口 |----|
口②②口 |②---|
口口口口 |----|
38
口口口口 |①---|
①口口① |----|
②口口② |②---|
口口口口 |----|
39
口①①口 |①---|
口②②口 |----|
口口口口 |②---|
口口口口 |----|
40
口口口口 |①---|
口口口口 |----|
口①①口 |②---|
口②②口 |----|
41
口口口口 |①---|
①口②① |----|
口口③口 |②---|
口口口口 |③---|
42
口口口口 |①---|
口口口口 |----|
口②口口 |②---|
口口①口 |----|
43
口口口口 |①---|
口③①口 |----|
口②口口 |②---|
口口口口 |③---|
44
口①口口 |①---|
口口②口 |----|
口口口口 |②---|
口口口口 |----|
45
②口口② |①---|
口口口口 |--②-|
口①①口
口口口口

口口口口
口口口口
口口③口 |----|
口口口口 |③---|
46
口口口口 |①---|
口口口口 |----|
口②口口 |②---|
口口①口 |----|
47
口口口口 |①---|
口②①口 |----|
口口口口 |②---|
口口口口 |----|
48
口口口口 |①---|
口口口口 |----|
口②①口 |②---|
口口口口 |----|
49
口口口口 |①---|
口②①口 |----|
口口口口 |②---|
口口口口 |----|
50
口口口口 |①---|
口口口口 |----|
口口②口 |②---|
口①①口 |----|
51
口口口口 |①---|
口①②口 |----|
口口口口 |②---|
口口口口 |----|
52
口口口口 |①---|
口口口口 |----|
口①②口 |②---|
口口口口 |----|
53
口口口口 |①---|
①①①① |----|
口口口口 |----|
口口口口 |----|
54
口口口口 |①---|
①―<口 |----|
口口口口 |----|
口口口口 |----|
55
口口口口 |①---|
①>―① |----|
口口口口 |----|
口口口口 |----|
56
口∨口口 |①---|
口|口① |----|
口①口口 |----|
口口口口 |----|
57
②口口② |①---|
口口口口 |--②---|
口①①口 |----|
口口口口 |----|
58
口口口口 |①---|
①―<口 |----|
口口口口 |----|
口口口口 |----|
59
口口口口 |①---|
①>―① |----|
口口口口 |----|
口口口口 |----|
60
口∨口口 |①---|
口|口① |----|
口①口口 |----|
口口口口 |----|
61
②口口② |①---|
口口口口 |--②---|
口①①口 |----|
口口口口 |----|
62
口口口口 |①---|
口①①口 |----|
口口口口 |----|
口口口口 |----|
63
口口口口 |①---|
口>―① |----|
口口口口 |----|
口口口口 |----|
64
口口口口 |①---|
①―<① |----|
口口口口 |----|
口口口口 |----|
65
口口∨口 |①---|
①口|口 |----|
口口①口 |----|
口口口口 |----|
66
②口口② |①---|
口口口口 |--②---|
口①①口 |----|
口口口口 |----|
67
口口口口 |①---|
口>―① |----|
口口口口 |----|
口口口口 |----|
68
口口口口 |①---|
①―<① |----|
口口口口 |----|
口口口口 |----|
69
口口口口 |①---|
①口①口 |----|
口②②口 |②---|
口口口口 |----|
70
口口口口 |①---|
①口口① |②---|
口口口口 |----|
口②②口 |----|
71
口口口口 |①---|
口①①口 |----|
口口口口 |----|
口口口口 |----|
72
⑧口口⑦ |①-②-|
⑥口口⑤ |③-④-|
④口口③ |⑤-⑥-|
②口口① |⑦-⑧-|
73
口口口口 |①---|
③①①③ |②---|
④②②④ |③---|
口口口口 |④---|
74
口口口口 |①---|
③①①③ |②---|
④②②④ |③---|
口口口口 |④---|
75
③①①③ |①---|
口口口口 |②---|
④②②④ |③---|
口口口口 |④---|
76
③①①③ |①---|
口口口口 |②---|
④②②④ |③---|
口口口口 |④---|
77
③①①③ |①---|
口口口口 |②---|
口口口口 |③---|
④②②④ |④---|
78
③①①③ |①---|
口口口口 |②---|
口口口口 |③---|
④②②④ |④---|
79
口②①口 |①-②-|
口④③口 |③-④-|
口⑥⑤口 |⑤-⑥-|
口⑧⑦口 |⑦-⑧-|
80
⑧口口⑦ |①-②-|
⑥口口⑤ |③-④-|
④口口③ |⑤-⑥-|
②口口① |⑦-⑧-|
81
口口口口 |①---|
口①①口 |----|
口①①口 |----|
口口口口 |----|
82
口口口口 |①---|
③口口② |----|
口①①口 |②---|
口口口口 |③---|
83
口口口口 |①---|
口②②口 |----|
口①①口 |②---|
口口口口 |----|
84
口口口口 |①---|
①口口① |----|
②口口② |②---|
口口口口 |----|
85
口①①口 |①---|
口①①口 |----|
口口口口 |----|
口口口口 |----|
最終更新:2019年11月02日 02:01