アットウィキロゴ
ケンぱ!ケンぱ!拳拳ぱん打!
ぱんぱんぱん打

EXTREME

Level: 9
BPM: 200
Notes: 628

1
口口口口 |----|
口口口口 |----|
口口口口 |----|
口口口口 |----|
2
①①①口 |①---|
①口①口 |----|
①①①口 |----|
口口口口 |----|
3
⑤口口口 |①-②-|
口口②① |③-④-|
口⑥④③ |⑤---|
口口口口 |⑥---|
4
口口口① |①---|
口口②口 |②---|
口口口③ |③---|
口口口口 |----|
5
口④①口 |①-②-|
⑥口口⑤ |③-④-|
口②③口 |⑤---|
口口口口 |⑥---|
6
口>―① |①---|
口口口口 |----|
口>―①
口口口口

口口口②
口②口口
口口口② |②---|
口口口口 |----|
7
⑧口口⑤ |①-②-|
④口口① |③-④-|
⑥口口⑦ |⑤-⑥-|
②口口③ |⑦-⑧-|
8
⑥口口口 |①-②-|
④②①③ |③-④-|
口⑤⑤口 |⑤---|
口口口口 |⑥---|
9
口⑧⑤口 |①-②-|
口④①口 |③-④-|
口⑥⑦口 |⑤-⑥-|
口②③口 |⑦-⑧-|
10
②口口③ |①-②-|
口口口口 |③-④-|
口口口口
④口口①

口口口口
―⑤口
口口口口 |⑤---|
―⑤口

口口口口
口口⑥口
⑥口口口
口口⑥口 |⑥---|
11
口④口口 |①-②-|
②口⑧① |③-④-|
⑥③口⑤ |⑤-⑥-|
口口⑦口 |⑦-⑧-|
12
口口口口 |①-②-|
④口口③ |③-④-|
口②①口
口口口口

口>―⑤
口口口口
口>―⑤ |⑤---|
口口口口

口口口⑥
口⑥口口
口口口⑥
口口口口 |⑥---|
13
⑥口口口 |①-②-|
口口口⑤ |③-④-|
口④③口 |⑤---|
口②①口 |⑥---|
14
口口∨口 |①-|
口口|口
口口|口
口口①口

口∨口口 |②-|
口|口口 |③-|
口|口口
口③②口

口⑥⑥口
⑤口口⑤ |④-|
口口口口 |⑤---|
口④口口 |⑥---|
15
口口口④ |①-②-|
⑤口③⑥ |③-④-|
口②口口 |⑤---|
①口口口 |⑥---|
16
①口口口 |①---|
口口④口 |②---|
口口口口 |③---|
③口口② |④---|
17
⑥②①⑥ |①-②-|
③口口口 |③-④-|
④口口口 |⑤---|
口⑤口口 |⑥---|
18
口①①口 |①---|
口③②③ |②---|
口②④② |③---|
口③②③ |④---|
19
口④口① |①---|
口口口③ |②-③-|
⑤口口② |④---|
①口口口 |⑤---|
20
口口①口 |①---|
口口口口 |②---|
口④口② |③---|
口口③口 |④---|
21
∨>―② |①-②-|
|①口口 |----|
|>―② |③-|
③口口口

口口口⑤
口口口口
口口口⑤ |④-|
④口口口 |⑤---|
22
①④①口 |①---|
③②③口 |②---|
②口②口 |③---|
③②③口 |④---|
23
口>―② |①-②-|
口口口①
口①口口
口口口口

④―<③
③口口口 |--③-|
口口口口 |④---|
口口口口

⑤口口口
口口口口
口口⑤口
口口口口 |⑤---|
24
口口口口 |①-②-|
口>―②
口口口①
口①口口

口口口口
④―<③ |--③-|
③口口口 |④---|
口口口口

口口口口
⑤口口口
口口口口
口口⑤口 |⑤---|
25
①―<口 |①---|
口口口口
口口口口
口口口口

②口口②
口口口口 |②---|
口口口口 |③---|
③―<口

口口口口
口口口口
口口口口
④口口④ |④---|
26
口①②口 |①-②-|
口口∨③ |③-④-|
口口|④ |⑤---|
口口⑤口

口口口口
口口口口
口⑥口口
口口⑥口 |⑥---|
27
②―<口 |①-②-|
①口口口
口口①口
口口口口

③>―④
口口口③ |--③-|
口口口口 |④---|
口口口口

口口口⑤
口口口口
口⑤口口
口口口口 |⑤---|
28
口①①口 |①---|
口口口② |②---|
口④④② |③---|
口③③口 |④---|
29
①<口口 |①---|
①口口
口口口口
口口口口

②口>③
口②③< |②---|
口口口② |③---|
口口口②

口口口④
口口④口
④口口口
④口口口 |④---|
30
口①②口 |①-②-|
口口∨③ |③-④-|
口口|④ |⑤---|
口口⑤口

口口口口
口⑥⑥口
口口口口
口口⑥口 |⑥---|
31
口⑥⑥① |①-②-|
口口口② |③-④-|
口⑥⑥③ |⑤---|
口⑤口④ |⑥---|
32
①⑥⑥口 |①-②-|
②口口口 |③-④-|
③⑥⑥口 |⑤---|
④口⑤口 |⑥---|
33
口口口① |①-②-|
⑤口⑥② |③-④-|
口口口③ |⑤---|
口口口④ |⑥---|
34
①―<口 |①---|
口口口口
①―<口
口口口口

②>―②
――③ |②---|
②>―② |③-|
口口口口

口口口⑤
口口口④
口口口⑤ |④-|
口口口口 |⑤---|
35
⑥口①⑥ |①-②-|
口口②口 |③-④-|
⑥口③⑥ |⑤---|
口⑤④口 |⑥---|
36
⑥①口⑥ |①-②-|
口②口口 |③-④-|
⑥③口⑥ |⑤---|
口④⑤口 |⑥---|
37
口口口口 |①-|
口口口口
口口口口
①口口①

口口口口 |②-|
②><② |----|
口口口口 |----|
口口口口 |----|
38
口口口⑤ |①---|
③③口③ |②---|
口④①口 |③---|
口②口口 |④-⑤-|
39
①②③⑤ |①-②-|
口口口⑤ |③---|
口口④口 |④---|
口③②① |⑤---|
40
①口口口 |①---|
②①口④ |②---|
②③口④ |③---|
③口口口 |④---|
41
③②①口 |①-②-|
④口口⑥ |③-④-|
⑤口口⑥ |⑤---|
口口口口 |⑥---|
42
口∨口口 |①-|
口|口口
口|口口
口①口口

口口∨口 |②-|
口口|口 |③-|
口口|口
口②③口

口口口∨
口口口| |④-|
口口口| |⑤-|
口口④⑤

⑦口⑦口
口口口口
口口口口 |⑥-|
口口口⑥ |⑦---|
43
口口口③ |①-②-|
②①⑥③ |③---|
⑤④⑥口 |④-⑤-|
口口口口 |⑥---|
44
口口口口 |①-②-|
口口⑥口 |③---|
⑤④⑥③ |④-⑤-|
②①口③ |⑥---|
45
∨口口口 |①-②-|
|①口① |----|
|口口口
②口口口

口③③口
④口口口
口口口口 |③---|
口口口口 |④---|
46
口口口⑤ |①---|
口口③③ |②---|
口④②② |③---|
③口①① |④-⑤-|
47
①②③⑤ |①-②-|
口口口⑤ |③---|
口口④口 |④---|
口③②① |⑤---|
48
①口口口 |①---|
②①口④ |②---|
②③口④ |③---|
③口口口 |④---|
49
③②①口 |①-②-|
④口口⑥ |③-④-|
⑤口口⑥ |⑤---|
口口口口 |⑥---|
50
口①口口 |①-|
口|口口
口|口口
口∧口口

口②③口 |②-|
口口|口 |③-|
口口|口
口口∧口

口口④⑤
口口口| |④-|
口口口| |⑤-|
口口口∧

口口口⑥
口口口口
口口口口 |⑥-|
⑦口⑦口 |⑦---|
51
口口口口 |①-②-|
口口②① |③---|
④④口③ |④---|
口口⑤⑤ |⑤---|
52
①口口① |①---|
②④④② |②---|
③口口③ |③---|
口口口口 |④---|
53
③②①口 |①-②-|
口口口口 |③---|
口口口口 |④-⑤-|
口④⑤⑥ |⑥---|
54
口口口口 |①---|
口①①口 |②---|
④②②④ |③---|
口③③口 |④---|
55
⑧口口⑤ |①-②-|
④口口① |③-④-|
⑥口口⑦ |⑤-⑥-|
②口口③ |⑦-⑧-|
56
⑥口口口 |①-②-|
④②①③ |③-④-|
口⑤⑤口 |⑤---|
口口口口 |⑥---|
57
口⑧⑤口 |①-②-|
口④①口 |③-④-|
口⑥⑦口 |⑤-⑥-|
口②③口 |⑦-⑧-|
58
②口口③ |①-②-|
口口口口 |③-④-|
口口口口
④口口①

口口口口
―⑤口
口口口口 |⑤---|
―⑤口

口口口口
口口⑥口
⑥口口口
口口⑥口 |⑥---|
59
口④口口 |①-②-|
②口⑧① |③-④-|
⑥③口⑤ |⑤-⑥-|
口口⑦口 |⑦-⑧-|
60
口口口口 |①-②-|
口④口口 |③-④-|
口②①⑤ |⑤---|
口③口口 |----|
61
①①①口 |①---|
①口①口 |----|
①①①口 |----|
口口口口 |----|
62
口口口∨ |①-|
口口口|
口口口|
口口口①

口口口口 |②-|
③口口④ |----|
③口口④ |③---|
口口口② |④---|
63
①②③⑤ |①-②-|
口口口⑤ |③---|
口口④口 |④---|
口③②① |⑤---|
64
①口口口 |①---|
②①口④ |②---|
②③口④ |③---|
③口口口 |④---|
65
③②①口 |①-②-|
④口口⑥ |③-④-|
⑤口口⑥ |⑤---|
口口口口 |⑥---|
66
口∨口口 |①-|
口|口口
口|口口
口①口口

口口∨口 |②-|
口口|口 |③-|
口口|口
口②③口

口口口∨
口口口| |④-|
口口口| |⑤-|
口口④⑤

⑦口⑦口
口口口口
口口口口 |⑥-|
口口口⑥ |⑦---|
67
口口口③ |①-②-|
②①⑥③ |③---|
⑤④⑥口 |④-⑤-|
口口口口 |⑥---|
68
口口口口 |①-②-|
口口⑥口 |③---|
⑤④⑥③ |④-⑤-|
②①口③ |⑥---|
69
∨口口口 |①-②-|
|①口① |----|
|口口口
②口口口

口③③口
④口口口
口口口口 |③---|
口口口口 |④---|
70
口口口口 |①---|
口口①① |②---|
口口②②
口口口口

口口口口
④口口⑤
口口口口 |③---|
③口③③ |④-⑤-|
71
①――< |①---|
口口口口 |----|
①――<
口口口口

③口口口
④口②③
③口口口 |②---|
口口口口 |③-④-|
72
――① |①---|
口口口口 |----|
――①
口口口口

口口口③
③②口④
口口口③ |②---|
口口口口 |③-④-|
73
③②①口 |①-②-|
⑤口④口 |③---|
口口口口 |④---|
口口口口 |⑤---|
74
②――< |①-②-|
口口口① |----|
②――<
口口口口

④口口口
④口③口
④口口口 |③---|
口口口口 |④---|
75
口口口口 |①-②-|
口口口① |③---|
口④⑤② |④---|
口口口③ |⑤---|
76
②口口② |①---|
口①①口 |②---|
口口口口 |③---|
口③③口 |----|
77
③②①口 |①-②-|
口口口口 |③---|
口口口口 |④-⑤-|
口④⑤⑥ |⑥---|
78
口口①① |①---|
④口②② |②---|
④口③③ |③---|
口口口口 |④---|
79
③②①④ |①-②-|
⑥口口⑤ |③---|
⑤口口⑥ |④-⑤-|
④①②③ |⑥---|
80
口①①口 |①---|
④②②口 |②---|
④③③口 |③---|
口口口口 |④---|
81
④①②③ |①-②-|
⑤口口⑥ |③---|
⑥口口⑤ |④-⑤-|
③②①④ |⑥---|
82
口②口③ |①---|
口②③口 |②---|
口④①口 |③---|
④口①口 |④---|
83
①②③口 |①-②-|
口口口口 |③---|
口口口口 |④-⑤-|
口⑥⑤④ |⑥---|
84
①口口① |①---|
②④④② |②---|
③④④③ |③---|
口口口口 |④---|
最終更新:2019年11月02日 02:10