アットウィキロゴ
ちょちょいとちょいだよ夢浪漫
A応P

EXTREME

Level: 8
BPM: 152
Notes: 580

1
口口口口 |----|
口口口口 |----|
口口口口 |----|
口口口口 |----|
2
①①②② |①-②-|
③⑦口口 |--③-|
④口⑥⑤ |④-⑤⑥|
口⑧口口 |⑦-⑧-|
3
②②①① |①-②-|
口口⑦③ |--③-|
⑤⑥口④ |④-⑤⑥|
口口⑧口 |⑦-⑧-|
4
口口口口 |--①-|
口口口① |②-③-|
口口口②
口口口③

口口口口
④⑤⑥⑦
口口口口 |④-⑤-|
口口口口 |⑥-⑦-|
5
口③③口 |①---|
口③③口 |②---|
口①②口 |③---|
①①②② |----|
6
⑦口口口 |--①-|
④口⑥⑤ |②-③-|
④口③口 |④--⑤|
口②①口 |⑥-⑦-|
7
口口口④ |①--②|
②③口口 |③-④-|
口⑤⑤① |⑤---|
口口口① |----|
8
口②①⑧ |--①②|
⑥⑦③⑤ |③-④-|
口④口⑤ |⑤--⑥|
口口口口 |⑦-⑧-|
9
④⑥⑥口 |①--②|
口口③② |③-④-|
①⑤⑤口 |⑤---|
①口口口 |--⑥-|
10
⑧⑧⑦⑦ |①-②-|
⑥⑥⑤⑤ |③-④-|
④④③③ |⑤-⑥-|
②②①① |⑦-⑧-|
11
口口口口 |①-②-|
口④口口 |③-④-|
口②③口
①①①①

口⑥口口
⑤口口口
口口口⑤ |⑤--⑥|
口口⑦⑧ |⑦-⑧-|
12
⑥⑦②口 |①--②|
口⑤⑤① |③-④-|
①⑤⑤口 |⑤---|
④③口口 |⑥-⑦-|
13
④口①口 |①---|
⑤④口③ |②-③-|
口⑤口② |④---|
口口口口 |⑤---|
14
口口⑧⑦ |①-②-|
口口⑥⑤ |③-④-|
①口④③ |⑤-⑥-|
口①②① |⑦-⑧-|
15
④⑤口口 |--①②|
口口⑥口 |③-④-|
③⑥⑥⑥ |⑤---|
①②⑥口 |⑥---|
16
②⑦口① |①-②-|
⑦口⑦口 |③-④-|
口⑦口口 |⑤-⑥-|
④⑥⑤③ |⑦---|
17
口口⑤④ |--①-|
③口口口 |②---|
③⑥口② |③--④|
口口口① |⑤-⑥-|
18
口④③口 |①---|
④口口③ |②---|
②口口① |③---|
口②①口 |④---|
19
口口④口 |--①②|
口口口④ |③-④-|
口③口口
口①②口

口口口口
⑤口口口
⑧口⑦⑥ |⑤--⑥|
口⑧口口 |⑦-⑧-|
20
②口口① |①-②-|
口④③口 |③-④-|
⑥口口⑤ |⑤-⑥-|
口⑦⑦口 |⑦---|
21
①⑦⑦① |①---|
④⑥⑤④ |②-③-|
口②②口 |④--⑤|
③口口③ |⑥-⑦-|
22
③④④③ |①---|
口③③口 |--②-|
①②②① |③---|
口①①口 |--④-|
23
④口口③ |①-②-|
④⑤⑤③ |③-④-|
②⑤⑤① |⑤---|
②口⑥① |⑥---|
24
②②①① |①-②-|
口口⑦③ |--③-|
⑤⑥口④ |④-⑤⑥|
口口⑧口 |⑦-⑧-|
25
①①②② |①-②-|
③⑦口口 |--③-|
④口⑥⑤ |④-⑤⑥|
口⑧口口 |⑦-⑧-|
26
口④⑨⑤ |--①②|
④⑧③⑨ |③-④-|
口②⑦口 |⑤-⑥⑦|
口⑥①口 |⑧-⑨-|
27
口口口口 |①-②-|
⑤④③⑥ |③---|
⑤③④⑥ |④-⑤-|
①口口② |⑥---|
28
①①②② |①-②-|
③⑦口口 |--③-|
④口⑥⑤ |④-⑤⑥|
口⑧口口 |⑦-⑧-|
29
②②①① |①-②-|
口口⑦③ |--③-|
⑤⑥口④ |④-⑤⑥|
口口⑧口 |⑦-⑧-|
30
口口口口 |--①-|
口口口① |②-③-|
口口口②
口口口③

口口口口
④⑤⑥⑦
口口口口 |④-⑤-|
口口口口 |⑥-⑦-|
31
口③③口 |①---|
口③③口 |②---|
口①②口 |③---|
①①②② |----|
32
③②②③ |①---|
口口口口 |②---|
①④④① |③---|
口口口口 |④---|
33
⑤⑤口口 |①-②-|
口⑤口口 |③-④-|
⑤口⑤口 |⑤---|
①②③④ |----|
34
口口口口 |①---|
①④④① |②---|
口口口口 |③---|
③②②③ |④---|
35
④③②① |①-②-|
口口口口 |③-④-|
口口口口
口口口口

口口口⑦
口⑤⑥口
口⑤口⑤ |⑤-⑥-|
口⑤⑤⑤ |⑦---|
36
口口口口 |①---|
①④④① |②---|
口口口口 |③---|
③②②③ |④---|
37
⑤口口⑥ |①-②-|
口⑦⑦口 |③-④-|
①②③④ |⑤-⑥-|
口口口口 |⑦---|
38
口口口口 |----|
口口口口 |----|
口口口口 |----|
口口口口 |----|
39
③④④③ |①---|
口③③口 |--②-|
①②②① |③---|
口①①口 |--④-|
40
④⑧⑦③ |①-②-|
④⑥⑤③ |③-④-|
②口口① |⑤-⑥-|
②口口① |⑦-⑧-|
41
③④④③ |①---|
口③③口 |--②-|
①②②① |③---|
口①①口 |--④-|
42
④口口③ |①-②-|
④⑤⑤③ |③-④-|
②⑤⑤① |⑤---|
②口⑥① |⑥---|
43
口⑦口口 |①-②-|
④口⑥⑤ |--③-|
口⑧口口 |④-⑤⑥|
①②口③ |⑦-⑧-|
44
口口口口 |①-②-|
口口口口 |--③-|
口口口口
①②口③

口口口口
口⑦口口
④口⑥⑤ |④-⑤⑥|
口⑧口口 |⑦-⑧-|
45
口口口口 |--①-|
④⑤⑥⑦ |②-③-|
口口口③ |④-⑤-|
口口②① |⑥-⑦-|
46
②③②口 |①---|
③③③口 |②---|
①③①口 |③---|
口口口口 |----|
47
口口⑦口 |①-②-|
⑤⑥口④ |--③-|
口口⑧口 |④-⑤⑥|
③口②① |⑦-⑧-|
48
口口口口 |①-②-|
口口口口 |--③-|
口口口口
③口②①

口口口口
口口⑦口
⑤⑥口④ |④-⑤⑥|
口口⑧口 |⑦-⑧-|
49
口口口口 |--①-|
⑦⑥⑤④ |②-③-|
③口口口 |④-⑤-|
①②口口 |⑥-⑦-|
50
④④③③ |①-②-|
口⑥⑥口 |③-④-|
②⑤⑤① |⑤-⑥-|
⑦②①⑦ |⑦---|
51
④②①⑦ |①-②-|
②口③① |--③-|
①⑥⑤② |④-⑤⑥|
口①②⑧ |⑦-⑧-|
52
⑦①②④ |①-②-|
①③口② |--③-|
②⑤⑥① |④-⑤⑥|
⑧②①口 |⑦-⑧-|
53
口口口⑤ |--①②|
⑥⑦⑧口 |③-④-|
④口口⑨ |⑤-⑥⑦|
口③②① |⑧-⑨-|
54
③口口④ |①-②-|
口⑤⑤口 |③---|
口④③口 |④-⑤-|
⑥②①⑥ |⑥---|
55
④②①⑦ |①-②-|
②口③① |--③-|
①⑥⑤② |④-⑤⑥|
口①②⑧ |⑦-⑧-|
56
⑦①②④ |①-②-|
①③口② |--③-|
②⑤⑥① |④-⑤⑥|
⑧②①口 |⑦-⑧-|
57
口口口口 |--①-|
口口口① |②-③-|
口口口②
口口口③

口口口口
④⑤⑥⑦
口口口口 |④-⑤-|
口口口口 |⑥-⑦-|
58
口③③口 |①---|
口③③口 |②---|
口①②口 |③---|
①①②② |----|
59
口口口口 |--①-|
①口口口 |②-③-|
②口口口
③口口口

口口口口
⑦口口⑥
口⑤④口 |④-⑤-|
口口口口 |⑥-⑦-|
60
④⑤⑤③ |①-②-|
⑥④③⑥ |③-④-|
②⑤⑤① |⑤---|
⑥②①⑥ |⑥---|
最終更新:2019年11月02日 02:19