アットウィキロゴ
ガヴリールドロップキック
ガヴリール(CV:富田美憂)、ヴィーネ(CV:大西沙織)、サターニャ(CV:大空直美)、ラフィエル(CV:花澤香菜)

BASIC

Level: 3
BPM: 168
Notes: 208

1
口口口口 |----|
口口口口 |----|
口口口口 |----|
口口口口 |----|
2
口口口口 |----|
口口口口 |----|
口口口口 |----|
口口口口 |----|
3
口口口口 |①---|
口口①口 |----|
口①口口 |----|
口口口口 |----|
4
口①口口 |①---|
口口口口 |----|
口口口口 |----|
口口口口 |----|
5
口口口口 |①---|
口口①口 |----|
口口口口 |----|
口口口口 |----|
6
口口口口 |①---|
口口口口 |----|
口①口口 |----|
口口口口 |----|
7
口口口口 |①---|
口口口口 |----|
口②②口 |②---|
口口①口 |----|
8
口口口口 |①---|
①口口① |----|
口口口口 |----|
口口口口 |----|
9
口口②口 |①---|
口口口口 |----|
口①口口 |②---|
口口口口 |----|
10
口口口口 |①---|
①②③口 |②---|
口口口口 |③---|
口口口口 |----|
11
口②口口 |①---|
口口口口 |----|
口口①口 |②---|
口口口口 |----|
12
口口口口 |①---|
口③②① |②---|
口口口口 |③---|
口口口口 |----|
13
①②③④ |①---|
口口口口 |②---|
口口口口 |③---|
口口口口 |④---|
14
口口口口 |①---|
④③②① |②---|
口口口口 |③---|
口口口口 |④---|
15
口口口口 |①---|
口口口口 |②---|
①②③④ |③---|
口口口口 |④---|
16
口口口口 |①---|
②①①② |----|
口口口口 |②---|
口口口口 |----|
17
口①②口 |①---|
口口口口 |----|
口口口口 |②---|
口口口口 |----|
18
口口口口 |①---|
口口①口 |----|
口②②口 |②---|
口口口口 |----|
19
口口口口 |①---|
口口口口 |----|
口口口口 |②---|
①①②② |----|
20
口口口口 |①---|
①①②② |----|
口口口口 |②---|
口口口口 |----|
21
口②①口 |①---|
口口口口 |----|
口口口口 |②---|
口口口口 |----|
22
口口口口 |①---|
口①口口 |----|
口②②口 |②---|
口口口口 |----|
23
口口口口 |①---|
口口口口 |----|
口口口口 |②---|
②②①① |----|
24
口口口口 |①---|
②②①① |----|
口口口口 |②---|
口口口口 |----|
25
口③口口 |①---|
口②口口 |②---|
口①口口 |③---|
口口口口 |----|
26
口口①口 |①---|
口口②口 |②---|
口口③口 |③---|
口口口口 |----|
27
口口口口 |①---|
口口②② |----|
口口口口 |②---|
①①口口 |----|
28
口口口口 |①---|
②②口口 |----|
口口口口 |②---|
口口①① |----|
29
口口③口 |①---|
口口②口 |②---|
口口①口 |③---|
口口口口 |----|
30
①②③口 |①---|
口口口口 |②---|
口口口口 |③---|
口口口口 |----|
31
口口口口 |----|
口口口口 |----|
口口口口 |----|
口口口口 |----|
32
口口口口 |----|
口口口口 |----|
口口口口 |----|
口口口口 |----|
33
口口口口 |①---|
口口口口 |----|
口②②口 |②---|
①口口① |----|
34
口②②口 |①---|
①口口① |----|
口口口口 |②---|
口口口口 |----|
35
①口口① |①---|
口②②口 |----|
口口口口 |②---|
口口口口 |----|
36
口口③③ |①---|
②②口口 |②---|
口口①① |③---|
口口口口 |----|
37
口口口口 |①---|
口口口口 |----|
口②②口 |②---|
①口口① |----|
38
口②②口 |①---|
①口口① |----|
口口口口 |②---|
口口口口 |----|
39
口②④口 |①---|
口①③口 |②---|
口口口口 |③---|
口口口口 |④---|
40
②口口④ |①---|
①口口③ |②---|
口口口口 |③---|
口口口口 |④---|
41
口口口口 |①---|
②①①② |----|
口口口口 |②---|
口口口口 |----|
42
口口口口 |①---|
②口口② |----|
①口口① |②---|
口口口口 |----|
43
口口口口 |①---|
口口①口 |----|
口①口口 |----|
口口口口 |----|
44
口口口口 |--①-|
口①口口 |----|
口口①口 |----|
口口口口 |----|
45
口口口口 |----|
口口①口 |①---|
口①口口 |----|
口口口口 |----|
46
①①①① |----|
口口口口 |①---|
口口口口 |----|
口口口口 |----|
47
口口口口 |----|
口口口口 |----|
口口口口 |----|
口口口口 |----|
48
口①②口 |①---|
口③④口 |②---|
口口口口 |③---|
口口口口 |④---|
49
口口口口 |①---|
口口口口 |②---|
口①②口 |③---|
口③④口 |④---|
50
口②口口 |①---|
口口②口 |----|
①口口① |②---|
口口口口 |----|
51
②口口② |①---|
口口口口 |----|
口①①口 |②---|
口口口口 |----|
52
口②①口 |①---|
口④③口 |②---|
口口口口 |③---|
口口口口 |④---|
53
口口口口 |①---|
口口口口 |②---|
口②①口 |③---|
口④③口 |④---|
54
口口②口 |①---|
口②口口 |----|
①口口① |②---|
口口口口 |----|
55
口口口口 |①---|
口口口口 |----|
口①①口 |②---|
②口口② |----|
56
口口口口 |①---|
口口口① |②---|
口口②口
口口口口

口口口④
口③③④
口口口口 |③---|
口口口口 |④---|
57
口口口口 |①---|
①口口口 |②---|
口②口口
口口口口

④口口口
④③③口
口口口口 |③---|
口口口口 |④---|
58
口②①口 |①---|
②口口① |----|
口口口口 |②---|
口口口口 |----|
59
④④④④ |①---|
③③③③ |②---|
②②②② |③---|
①①①① |④---|
60
口口口口 |----|
②口口口 |①---|
①口口口 |②---|
口口口口
61
口①②口 |①---|
口口口③ |②---|
口口口口 |③---|
口口口口
62
口口口口 |①---|
口口②口 |----|
口②口① |②---|
口口口口
63
口口口口 |①---|
口①口口 |----|
口口①口 |----|
口口口口

accuracy: 99.5%
最終更新:2023年03月11日 14:12