アットウィキロゴ
ガヴリールドロップキック
ガヴリール(CV:富田美憂)、ヴィーネ(CV:大西沙織)、サターニャ(CV:大空直美)、ラフィエル(CV:花澤香菜)

ADVANCED

Level: 7
BPM: 168
Notes: 365

1
口口口口 |----|
口口口口 |----|
口口口口 |----|
口口口口 |----|
2
口口口口 |----|
口口口口 |----|
口口口口 |----|
口口口口 |----|
3
①口口口 |①---|
口口口口 |----|
口口口口 |----|
口口口口 |----|
4
口④⑤口 |①---|
②口口③ |--②-|
⑥口口口 |③-④-|
口①①口 |⑤-⑥-|
5
口口口口 |--①-|
口口口口 |--②-|
口②口口 |③---|
口口③① |----|
6
②口口① |①---|
口②①口 |②---|
口③④口 |③---|
③口口④ |④---|
7
口口口① |①---|
③口①③ |--②-|
口口口口 |----|
口②②口 |③---|
8
①①①① |①---|
口口口口 |----|
口口口口 |----|
口口口口 |----|
9
口口口口 |①---|
①口②② |②---|
③口④④ |③---|
口口口口 |④---|
10
①口②② |①---|
口口口口 |②---|
口口口口 |③---|
③口④④ |④---|
11
口口口口 |①---|
②②口① |②---|
④④口③ |③---|
口口口口 |④---|
12
②②口① |①---|
口口口口 |②---|
口口口口 |③---|
④④口③ |④---|
13
口③①口 |①---|
口口口口 |②---|
口④②口 |③---|
口④②口 |④---|
14
③口口① |①---|
口口口口 |②---|
④口口② |③---|
④口口② |④---|
15
口④②口 |①---|
口④②口 |②---|
口口口口 |③---|
口③①口 |④---|
16
口③③口 |①---|
②③③② |②---|
①口口① |③---|
口口口口 |----|
17
口口口口 |①---|
②③口口 |--②-|
口口⑤④ |③-④-|
⑥①①口 |⑤-⑥-|
18
②口口② |①---|
口口口口 |②---|
口③③口 |③---|
口①口口 |----|
19
口口口口 |①---|
①①①① |--②-|
口口口口
口②口口

口⑤口口
④口口口
口口③口 |③---|
口口口口 |④-⑤-|
20
④口口④ |--①-|
口③③① |②---|
口口②口 |③---|
口口口口 |④---|
21
口口口口 |①---|
口口③② |--②-|
④⑤口口 |③-④-|
口①①⑥ |⑤-⑥-|
22
②口口② |①---|
口口口口 |②---|
口③③口 |③---|
口口①口 |----|
23
口口口口 |①---|
①①①① |--②-|
口口口口
口②口口

口⑤口口
④口口口
口口③口 |③---|
口口口口 |④-⑤-|
24
口口口口 |--①-|
口口口① |②---|
口口②口 |③-④-|
③④⑤⑥ |⑤-⑥-|
25
口③口口 |①---|
③口口口 |②---|
②①①② |③---|
口④④口 |④---|
26
口口口口 |①---|
口①口① |②---|
②口②口 |③---|
口③口③ |----|
27
口口口口 |①-②-|
⑦①②口 |--③-|
⑤口口⑥ |④-⑤-|
③口口④ |⑥-⑦-|
28
④④③③ |--①-|
口口口口 |②---|
口口①口 |③---|
口②口口 |④---|
29
口口③口 |①---|
口口口③ |②---|
②①①② |③---|
口④④口 |④---|
30
③口③口 |①---|
①口①口 |②---|
口②口② |③---|
口口口口 |----|
31
口口口口 |----|
口口口口 |----|
口口口口 |----|
口口口口 |----|
32
口口口口 |----|
口口口口 |----|
口口口口 |----|
口口口口 |----|
33
口口口口 |--①-|
口口口口 |②---|
口⑤口④ |③-④-|
①②口③ |--⑤-|
34
口口③② |①---|
口①口口 |②-③-|
④⑤口口 |--④-|
口口口口 |⑤---|
35
口④⑥⑤ |①-②-|
口③口② |--③-|
口口口① |④---|
口口口口 |⑤-⑥-|
36
⑥⑤④③ |①---|
②口口② |②---|
①口口① |③-④-|
口口口口 |⑤-⑥-|
37
口口口口 |--①-|
口口口口 |②---|
④口⑤口 |③-④-|
③口②① |--⑤-|
38
②③口口 |①---|
口口①口 |②-③-|
口口⑤④ |--④-|
口口口口 |⑤---|
39
口口口口 |①-②-|
③⑦④⑧ |③-④-|
口口口口 |⑤-⑥-|
①⑤②⑥ |⑦-⑧-|
40
③⑦④⑧ |①-②-|
口口口口 |③-④-|
①⑤②⑥ |⑤-⑥-|
口口口口 |⑦-⑧-|
41
口口口口 |①---|
④①①⑤ |--②-|
②口口③ |③-④-|
口口口口 |⑤---|
42
②口口② |①---|
口③③口 |②-③-|
口口口口 |----|
口①①口 |----|
43
③口口口 |①---|
口口③② |--②-|
①②口口 |----|
口口①口 |③---|
44
口口口③ |--①-|
②③口口 |----|
口口②① |②---|
口①口口 |--③-|
45
口口口口 |----|
口口口② |①---|
①②口口 |--②-|
口口①口 |----|
46
①②②② |①---|
口口①口 |②---|
口口口口 |----|
口口口口 |----|
47
口口口口 |----|
口口口口 |----|
口口口口 |----|
口口口口 |----|
48
①④①④ |①--②|
口口口口 |--③-|
⑤口口② |④--⑤|
③口口⑥ |--⑥-|
49
①口①口 |①--②|
口⑦⑥口 |--③-|
口⑤④② |④-⑤-|
③口口口 |⑥-⑦-|
50
②口①③ |①---|
口口口口 |②---|
③口口② |③---|
口口口口 |----|
51
口口口口 |①--②|
口①①口 |--③-|
③口口③
口②②口

口口口口
④⑤⑤④
口⑤⑤口 |④---|
口口口口 |⑤---|
52
④①④① |①--②|
口口口口 |--③-|
②口口⑤ |④--⑤|
⑥口口③ |--⑥-|
53
口①口① |①--②|
口⑥⑦口 |--③-|
②④⑤口 |④-⑤-|
口口口③ |⑥-⑦-|
54
③①口② |①---|
口口口口 |②---|
②口口③ |③---|
口口口口 |----|
55
口⑤⑤口 |①--②|
③①①③ |--③-|
④⑤⑤④ |④---|
口②②口 |⑤---|
56
④③口③ |①---|
③口③口 |②---|
口口口口 |③---|
②①②① |④---|
57
③口③④ |①---|
口③口③ |②---|
口口口口 |③---|
①②①② |④---|
58
②①③④ |①---|
①③①③ |②---|
口口口口 |③---|
口口口口 |④---|
59
④口口④ |①---|
口③③口 |②---|
口②②口 |③---|
①口口① |④---|
60
口口口口 |----|
口口口口 |①---|
口①②口 |②---|
口口口口
61
口口口口 |①---|
口②①口 |②---|
口③口口 |③---|
口口口口
62
口口口② |①---|
口口口口 |----|
口口①口 |②---|
②口口口
63
①口口口 |①---|
口口口口 |----|
口口口口 |----|
口口口①

accuracy: 99.5%
最終更新:2023年03月11日 14:22