アットウィキロゴ
Claidheamh Soluis-光の剣- feat. はるの
猫大樹

BASIC

Level: 3
BPM: 160
Notes: 309

1
口口口口 |----|
口口口口 |----|
口口口口 |----|
口口口口 |----|
2
口口口口 |----|
口口口口 |----|
口①②口 |①---|
口口口口 |②---|
3
口①口口 |①---|
口口②口 |②---|
口③口口 |③---|
口口④口 |④---|
4
③口口③ |①---|
口②②口 |--②-|
①口口① |----|
口口口口 |③---|
5
口口①口 |①---|
口②口口 |②---|
口口③口 |③---|
口④口口 |④---|
6
口口口口 |①---|
口口口口 |----|
口口口口 |----|
口口①口 |----|
7
口①口口 |①---|
口口②口 |②---|
口③口口 |③---|
口口④口 |④---|
8
③口口③ |①---|
口②②口 |--②-|
①口口① |----|
口口口口 |③---|
9
口④口口 |①---|
口口③口 |②---|
口②口口 |③---|
口口①口 |④---|
10
口口①口 |①---|
口口口口 |----|
口口口口 |----|
口口口口 |----|
11
口①口口 |①---|
口口②口 |②---|
口③口口 |③---|
口口④口 |④---|
12
③口口③ |①---|
口②②口 |--②-|
①口口① |----|
口口口口 |③---|
13
口口①口 |①---|
口②口口 |②---|
口口③口 |③---|
口④口口 |④---|
14
口口口口 |①---|
口口口口 |----|
口口口口 |----|
口口①口 |----|
15
口①口口 |①---|
口口②口 |②---|
口③口口 |③---|
口口④口 |④---|
16
③口口③ |①---|
口②②口 |--②-|
①口口① |----|
口口口口 |③---|
17
口④口口 |①---|
口口③口 |②---|
口②口口 |③---|
口口①口 |④---|
18
口口①口 |①---|
口口口口 |----|
口口口口 |----|
口口口口 |----|
19
口口口口 |①---|
口口口口 |②---|
口③口④ |③---|
①口②口 |④---|
20
①口口① |①---|
口②②口 |--②-|
③口口③ |----|
口口口口 |③---|
21
口口口④ |①---|
口口③口 |②---|
口②口口 |③---|
①口口口 |④---|
22
口①口口 |①---|
口口口口 |----|
口口口口 |----|
口口口口 |----|
23
口口口口 |①---|
口口口口 |②---|
口③口④ |③---|
①口②口 |④---|
24
①口口① |①---|
口②②口 |--②-|
③口口③ |----|
口口口口 |③---|
25
口口口④ |①---|
口口③口 |②---|
口②口口 |③---|
①口口口 |④---|
26
口①口口 |①---|
口口口口 |----|
口口口口 |----|
口口口口 |----|
27
③口口口 |①---|
③②①口 |②---|
口口口口 |③---|
口口口口 |----|
28
口口口口 |①---|
口口口口 |②---|
口①②③ |③---|
口口口③ |----|
29
口口口口 |①---|
口②①口 |②---|
口④③口 |③---|
口口口口 |④---|
30
口口口口 |①---|
①②③④ |②---|
口口口口 |③---|
口口口口 |④---|
31
口口口口 |①---|
口口口口 |②---|
④③②① |③---|
④口口口 |④---|
32
口口口④ |①---|
①②③④ |②---|
口口口口 |③---|
口口口口 |④---|
33
口④④口 |①---|
口口③口 |②---|
口②①口 |③---|
口口口口 |④---|
34
口口口口 |①---|
④③②① |②---|
口口口口 |③---|
口口口口 |④---|
35
口口口口 |①---|
口口口口 |----|
口①②口 |②---|
口口口口 |----|
36
口口口口 |①---|
口口口口 |----|
口口口① |----|
口口口口 |----|
37
口口口口 |①---|
口②①口 |----|
口口口口 |②---|
口口口口 |----|
38
口口口口 |①---|
①口口口 |----|
口口口口 |----|
口口口口 |----|
39
口口口口 |①---|
口口口口 |----|
口①②口 |②---|
口口口口 |----|
40
口口口口 |①---|
口①②口 |----|
口口口口 |②---|
口口口口 |----|
41
①口口① |①---|
口②口口 |----|
口口口口 |----|
口口口口 |②---|
42
口口口口 |①---|
口口口口 |----|
口③①口 |②---|
口②口口 |③---|
43
口口口② |①---|
②①口口 |----|
口口口口 |②---|
口口口口 |----|
44
①口口口 |①---|
口口口① |----|
口②口口 |----|
口口口口 |②---|
45
口口口口 |①---|
口口口口 |----|
口口口口 |----|
口口①口 |----|
46
口口口口 |----|
口口口口 |----|
口口口口 |----|
口口口口 |----|
47
口口口口 |①---|
②口口口 |----|
口①①口 |----|
口口口口 |②---|
48
口口口口 |①---|
口口口口 |----|
①③口口 |②---|
口②口口 |③---|
49
口②②口 |①---|
口①口口 |----|
口口口口 |②---|
口口口口 |----|
50
口口口口 |①---|
口①①口 |----|
口口②口 |----|
口口口口 |②---|
51
口口口口 |①---|
口口口口 |----|
口①口口 |----|
口口口口 |----|
52
口口口口 |①---|
③③④④ |②---|
①①②② |③---|
口口口口 |④---|
53
口口口口 |①---|
③口口③ |--②-|
口②②口 |----|
①口口① |③---|
54
①口口① |①---|
口口口口 |----|
口口口口 |----|
口口口口 |----|
55
口口口口 |①---|
口口口口 |----|
口①①口 |----|
口口口口 |----|
56
口口口口 |①---|
口①①口 |----|
口②②口 |②---|
口口口口 |----|
57
口口口口 |①---|
③口口② |--②-|
②口口③ |----|
口①①口 |③---|
58
口①①口 |①---|
口②③口 |--②-|
口口口④ |③---|
口口口口 |④---|
59
口②②口 |①---|
口口口① |--②-|
口口口口
口口口口

口口口口
口口③③
口口口口 |----|
口口口口 |③---|
60
口口口口 |①---|
①①口口 |②---|
③③②② |③---|
口口④④ |④---|
61
口口口口 |①---|
口口口口 |----|
口口口口 |----|
①①口口 |----|
62
口口口口 |----|
口口口口 |----|
口口口口 |----|
口口口口 |----|
63
口口口口 |①---|
③①①口 |②---|
口②②口 |----|
口口口口 |③---|
64
口口口口 |①---|
口口口口 |----|
①③口口 |②---|
口②口口 |③---|
65
口②②口 |①---|
口①口口 |----|
口口口口 |②---|
口口口口 |----|
66
口口口口 |①---|
口①①口 |----|
口口②口 |----|
口口口口 |②---|
67
口口口口 |①---|
口口口口 |----|
口①口口 |----|
口口口口 |----|
68
口口口口 |①---|
③③④④ |②---|
①①②② |③---|
口口口口 |④---|
69
口口口口 |①---|
③口口③ |--②-|
口②②口 |----|
①口口① |③---|
70
①口口① |①---|
口口口口 |----|
口口口口 |----|
口口口口 |----|
71
口口口口 |①---|
口口口口 |----|
口①①口 |----|
口口口口 |----|
72
口口口口 |①---|
口①①口 |----|
口②②口 |②---|
口口口口 |----|
73
口口口口 |①---|
③口口② |--②-|
②口口③ |----|
口①①口 |③---|
74
口①①口 |①---|
口②③口 |--②-|
口口口④ |③---|
口口口口 |④---|
75
口②②口 |①---|
口口口① |--②-|
口口口口
口口口口

口口口口
口口③③
口口口口 |----|
口口口口 |③---|
76
口口口口 |①---|
①①口口 |②---|
③③②② |③---|
口口④④ |④---|
77
口口口口 |①---|
口口口口 |----|
口口口口 |----|
①①口口 |----|
78
口口口口 |----|
口口口口 |----|
口口口口 |----|
口口口口 |----|
79
③口口口 |①---|
③②①口 |②---|
口口口口 |③---|
口口口口 |----|
80
口口口口 |①---|
口口口口 |②---|
口①②③ |③---|
口口口③ |----|
81
口口口口 |①---|
口②①口 |②---|
口④③口 |③---|
口口口口 |④---|
82
口口口口 |①---|
①②③④ |②---|
口口口口 |③---|
口口口口 |④---|
83
口口口口 |①---|
口口口口 |②---|
④③②① |③---|
④口口口 |④---|
84
口口口④ |①---|
①②③④ |②---|
口口口口 |③---|
口口口口 |④---|
85
口④④口 |①---|
口口③口 |②---|
口②①口 |③---|
口口口口 |④---|
86
口口口口 |①---|
④③②① |②---|
口口口口 |③---|
口口口口 |④---|

accuracy: 99.5%
最終更新:2022年11月25日 03:04