アットウィキロゴ
Claidheamh Soluis-光の剣- feat. はるの
猫大樹

ADVANCED

Level: 6
BPM: 160
Notes: 502

1
口口口口 |----|
口口口口 |----|
口口口口 |----|
口口口口 |----|
2
口口口口 |----|
口口口口 |----|
口口②口 |①---|
口①口口 |②---|
3
口口口口 |①-②-|
④③②① |③-④-|
口⑤⑥⑦ |⑤-⑥-|
口口口口 |⑦---|
4
①①②② |①---|
口口口口 |--②-|
口③③口 |----|
口口口口 |③---|
5
口口口口 |①-②-|
④③②① |③-④-|
口口⑤口 |⑤---|
口⑦⑥口 |⑥-⑦-|
6
口口口口 |----|
口口口口 |----|
口口口口 |----|
口口口口 |----|
7
口口口口 |①-②-|
④③②① |③-④-|
口⑤⑥⑦ |⑤-⑥-|
口口口口 |⑦---|
8
①①②② |①---|
口口口口 |--②-|
口③③口 |----|
口口口口 |③---|
9
口口⑤口 |①-②-|
④③②① |③-④-|
口⑦⑥口 |⑤---|
口口口口 |⑥-⑦-|
10
口口口口 |----|
口口口口 |----|
口口口口 |----|
口口口口 |----|
11
口口口口 |①-②-|
④③②① |③-④-|
口⑤⑥⑦ |⑤-⑥-|
口口口口 |⑦---|
12
①①②② |①---|
口口口口 |--②-|
口③③口 |----|
口口口口 |③---|
13
口口口口 |①-②-|
④③②① |③-④-|
口口⑤口 |⑤---|
口⑦⑥口 |⑥-⑦-|
14
口口口口 |----|
口口口口 |----|
口口口口 |----|
口口口口 |----|
15
口口口口 |①-②-|
④③②① |③-④-|
口⑤⑥⑦ |⑤-⑥-|
口口口口 |⑦---|
16
①①②② |①---|
口口口口 |--②-|
口③③口 |----|
口口口口 |③---|
17
口口⑤口 |①-②-|
④③②① |③-④-|
口⑦⑥口 |⑤---|
口口口口 |⑥-⑦-|
18
口口口口 |----|
口口口口 |----|
口口口口 |----|
口口口口 |----|
19
口口口口 |①-②-|
③④②① |③-④-|
⑦口⑥⑤ |⑤-⑥-|
口口口口 |⑦---|
20
②口口① |①---|
②口口① |--②-|
口③③口 |----|
口口口口 |③---|
21
⑤②①⑤ |①-②-|
口④③口 |③-④-|
口⑦⑥口 |⑤---|
口口口口 |⑥-⑦-|
22
口口口口 |----|
口口口口 |----|
口口口口 |----|
口口口口 |----|
23
口口口口 |①-②-|
③④②① |③-④-|
⑦口⑥⑤ |⑤-⑥-|
口口口口 |⑦---|
24
②口口① |①---|
②口口① |--②-|
口③③口 |----|
口口口口 |③---|
25
⑤④③⑤ |①-②-|
口②①口 |③-④-|
口⑦⑥口 |⑤---|
口口口口 |⑥-⑦-|
26
口口口口 |----|
口口口口 |----|
口口口口 |----|
口口口口 |----|
27
⑦⑥⑥⑦ |①-②-|
①①口② |③-④-|
③③口④ |⑤-⑥-|
⑤⑤口口 |--⑦-|
28
口口口口 |①-②-|
②口①① |③-④-|
④口③③
口口口口

口⑥⑥口
⑦口口⑦
口口口口 |⑤-⑥-|
口口⑤⑤ |--⑦-|
29
①口口① |①---|
口口口口 |②-③-|
②②口③
口口口口

⑥口口⑥
口口口口
口口口口 |④-⑤-|
④④⑤⑤ |⑥---|
30
口⑥⑥口 |①-②-|
①①口② |③-④-|
③③口④ |⑤-⑥-|
⑤⑤口口 |----|
31
口⑦⑦口 |①-②-|
①①口② |③-④-|
③③口④ |⑤-⑥-|
⑤⑤口⑥ |⑦---|
32
口⑦⑦口 |①-②-|
②口①① |③-④-|
④口③③ |⑤-⑥-|
⑥口⑤⑤ |⑦---|
33
口⑦⑦口 |①-②-|
①①口② |③-④-|
③③口④ |⑤-⑥-|
⑤⑤口⑥ |⑦---|
34
⑥口口⑥ |①-②-|
②②①① |③-④-|
④④③③ |⑤-⑥-|
口口⑤⑤ |----|
35
口口口口 |①---|
③②①口 |②---|
口④口口 |③---|
口口口口 |④---|
36
口口口口 |①---|
口口口口 |----|
口口①口
口口口口

口口口口
口口口口
口④⑤口 |②-③-|
口②③口 |④-⑤-|
37
口④③② |①---|
口①口口 |②---|
口口口口 |③---|
口口口口 |④---|
38
口口口口 |①---|
口口①口 |----|
口④⑤口 |②-③-|
口②③口 |④-⑤-|
39
口④③② |①---|
口①口口 |②---|
口口口口 |③---|
口口口口 |④---|
40
①口口口 |①---|
口口口口 |----|
口②②口 |②---|
口③③口 |③---|
41
①口口① |①---|
口口口② |----|
口口②口 |----|
口口口口 |②---|
42
③③②② |①---|
①口口口 |----|
口①口口 |②---|
口口口口 |③---|
43
②口口② |①---|
口口口口 |----|
口①①口 |②---|
口口口口 |----|
44
口口口口 |①---|
口①①口 |----|
口口口② |----|
口口②口 |②---|
45
口口口口 |①---|
口口口口 |----|
①口口口 |----|
口①口口 |----|
46
口口口口 |----|
口口口口 |----|
口口口口 |----|
口口口口 |----|
47
口①①口 |①---|
①口②① |----|
口③口口 |----|
口口口口 |②-③-|
48
口口口口 |①---|
口⑤④口 |----|
口③②口 |②-③-|
口口①口 |④-⑤-|
49
口②①口 |①---|
②口口① |----|
口口口口 |②---|
口口口口 |----|
50
口口口口 |①---|
口②口口 |----|
口①①口 |----|
口口口口 |②---|
51
口口口口 |①---|
口口口口 |----|
口②①口 |----|
口口口口 |--②-|
52
②口口① |①---|
④口口③ |②---|
③口口④ |③---|
①口口② |④---|
53
口口口口 |①---|
口③③口 |--②-|
口②②口 |----|
口①①口 |③---|
54
①口口① |①---|
口口口口 |----|
口口口口 |----|
口口口口 |----|
55
口口①口 |①---|
口口口① |----|
口口口口 |----|
口口口口 |----|
56
口①口口 |①---|
①②②口 |----|
口口口口 |②---|
口口口口 |----|
57
③口口② |①---|
口口口口 |--②-|
口①①口 |----|
②口口③ |③---|
58
口口口口 |①---|
口①①⑤ |--②-|
④②③口 |③---|
口口口口 |④-⑤-|
59
①口口③ |①---|
口口③口 |--②-|
口②②口 |----|
口口口口 |③---|
60
①口口口 |①---|
③①口② |②---|
口③②④ |③---|
口口④口 |④---|
61
口口口口 |①---|
口口口口 |----|
①口口口 |----|
口①口口 |----|
62
口口口口 |----|
口口口口 |----|
口口口口 |----|
口口口口 |----|
63
②②口口 |①---|
口口④口 |②---|
口⑤口口 |③---|
③口①① |④-⑤-|
64
口口口口 |①---|
口⑥⑤口 |②---|
口④③口 |③-④-|
②口①口 |⑤-⑥-|
65
口③①口 |①---|
③口口① |②---|
口口口口 |③---|
口④②口 |④---|
66
口口口口 |①---|
口②口口 |----|
口①①口 |----|
口口口口 |②---|
67
②口口口 |①---|
③口⑤口 |②---|
④口①口 |③---|
口口口口 |④-⑤-|
68
②④③① |①---|
口口口口 |②---|
口口口口 |③---|
①③④② |④---|
69
口口口口 |①---|
②③③① |--②-|
口②①口 |----|
口口口口 |③---|
70
①口口① |①---|
口口口口 |----|
口口口口 |----|
口口口口 |----|
71
口口①口 |①---|
口口④① |②---|
口③②口 |③---|
口口口口 |④---|
72
口①③口 |①---|
①口口③ |②---|
口②④口 |③---|
口口口口 |④---|
73
③①口② |①---|
①口口口 |--②-|
口口口口 |----|
②口口③ |③---|
74
口口口口 |①---|
口①①⑤ |--②-|
④②③口 |③---|
口口口口 |④-⑤-|
75
①口③口 |①---|
口口口③ |--②-|
口②②口 |----|
口口口口 |③---|
76
口①口口 |①---|
①③②口 |②---|
③口④② |③---|
口口口④ |④---|
77
口口口口 |①---|
口口口口 |----|
口①口口 |----|
①口口口 |----|
78
口口口口 |----|
口口口口 |----|
口口口口 |----|
口口口口 |----|
79
⑥⑦⑦⑥ |①-②-|
①①口② |③-④-|
③③口④ |⑤-⑥-|
⑤⑤口口 |--⑦-|
80
口口口口 |①-②-|
②口①① |③-④-|
④口③③
口口口口

口⑥⑥口
⑦口口⑦
口口口口 |⑤-⑥-|
口口⑤⑤ |--⑦-|
81
①口口① |①---|
口口口口 |②-③-|
②②口③
口口口口

⑥口口⑥
口口口口
口口口口 |④-⑤-|
④④口⑤ |⑥---|
82
⑥口口⑥ |①-②-|
②口①① |③-④-|
④口③③ |⑤-⑥-|
口口⑤⑤ |----|
83
⑦口口⑦ |①-②-|
①①口② |③-④-|
③③口④ |⑤-⑥-|
⑤⑤口⑥ |⑦---|
84
⑦口口⑦ |①-②-|
②口①① |③-④-|
④口③③ |⑤-⑥-|
⑥口⑤⑤ |⑦---|
85
⑦口口⑦ |①-②-|
①①口② |③-④-|
③③口④ |⑤-⑥-|
⑤⑤口⑥ |⑦---|
86
⑥⑥⑥⑥ |①-②-|
②②①① |③-④-|
④④③③ |⑤-⑥-|
口⑤⑤口 |----|

accuracy: 99.5%
最終更新:2022年11月25日 03:13