アットウィキロゴ
Shadow and Truth
ONE III NOTES

BASIC

Level: 3
BPM: 121
Notes: 171

1
口口口口 |----|
口口口口 |----|
口口口口 |----|
口口口口 |----|
2
口口口口 |----|
口口口口 |----|
口口口口 |----|
口口口口 |----|
3
口口口口 |----|
口口口口 |----|
口口口口 |----|
口口口口 |----|
4
①口口口 |①---|
口②口口 |②---|
口口③口 |③---|
口口口口 |----|
5
口口口口 |①---|
口口①口 |②---|
口②口口 |③---|
③口口口 |----|
6
口口口口 |①---|
口口口口 |----|
口②②口 |②---|
口①①口 |----|
7
口口口口 |①---|
口①①口 |----|
口口口口 |----|
口口口口 |----|
8
①口口① |①---|
口口口口 |----|
口口口口 |----|
口口口口 |----|
9
口口口口 |①---|
口①①口 |----|
口口口口 |----|
口口口口 |----|
10
口口口口 |①---|
口口口口 |----|
口①①口 |----|
口口口口 |----|
11
口口口口 |①---|
口口口口 |②---|
口口口口 |③---|
①②③④ |④---|
12
口口口口 |①---|
④③②① |②---|
口口口口 |③---|
口口口口 |④---|
13
口口口口 |①---|
口口口口 |②---|
①②③④ |③---|
口口口口 |④---|
14
④③②① |①---|
口口口口 |②---|
口口口口 |③---|
口口口口 |④---|
15
口口口口 |①---|
口口口口 |②---|
④③②① |③---|
口口口口 |④---|
16
口口口口 |①---|
口口口口 |②---|
口口口口 |③---|
①②③④ |④---|
17
口口口口 |①---|
④③②① |②---|
口口口口 |③---|
口口口口 |④---|
18
④口口④ |①---|
口③③口 |②---|
口②②口 |③---|
口①①口 |④---|
19
口①口口 |①---|
②口口口 |②---|
口③口口 |③---|
口口口口 |----|
20
口口①口 |①---|
口口口② |②---|
口口③口 |③---|
口口口口 |----|
21
口口口口 |①---|
口①口口 |②---|
口②口口 |③---|
口③口口 |----|
22
口口口口 |①---|
口口①口 |②---|
口口②口 |③---|
口口③口 |----|
23
④④口口 |①---|
③口口口 |②---|
②口口口 |③---|
①口口口 |④---|
24
口口口口 |----|
口口①口 |①---|
口口②口 |②---|
口口③口 |③---|
25
口口口口 |①---|
口②②口 |----|
口口口口 |----|
口口口① |---②|
26
口口口口 |----|
②口口② |---①|
口①①口 |----|
口口口口 |---②|
27
口口口口 |----|
口口口口 |----|
口口口口 |----|
口①口口 |①---|
28
口口③③ |①---|
口②④④ |②---|
口口①口 |③---|
口口口口 |④---|
29
口口口口 |①---|
口口口口 |②---|
口①②③ |③---|
口口口口 |----|
30
口口口口 |①---|
①①②② |----|
口口口口 |②---|
口口口口 |----|
31
口口口口 |①---|
口口口口 |②---|
口②②口
口①①口

口口口口
口③③口
口口口口 |③---|
口口④口 |④---|
32
③③口口 |①---|
④④②口 |②---|
口①口口 |③---|
口口口口 |④---|
33
口口口口 |①---|
口口口口 |②---|
③②①口 |③---|
口口口口 |----|
34
口口口口 |①---|
②②①① |----|
口口口口 |②---|
口口口口 |----|
35
④口口④ |①---|
③口口③ |②---|
②口口② |③---|
①口口① |④---|
36
口口③③ |①---|
口②④④ |②---|
口口①口 |③---|
口口口口 |④---|
37
口口口口 |①---|
口口口口 |②---|
口①②③ |③---|
口口口口 |----|
38
口口口口 |①---|
①①②② |----|
口口口口 |②---|
口口口口 |----|
39
口口口口 |①---|
口③③口 |②---|
口②②口 |③---|
口①①口 |----|
40
③③口口 |①---|
④④②口 |②---|
口①口口 |③---|
口口口口 |④---|
41
口口④④ |①---|
口口③口 |②---|
口口②口 |③---|
口口①口 |④---|
42
①①口口 |①---|
口口②口 |----|
口③口口 |②---|
口口口口 |③---|
43
口口口口 |①---|
口②②口 |----|
口口口口 |----|
口口①口 |②---|
44
①口口① |①---|
口②口口 |----|
口口③口 |②---|
口口口口 |③---|
45
口口口口 |①---|
口口口口 |----|
口口口口 |----|
口①口口 |----|
46
口口口口 |①---|
①②③④ |②---|
口⑤⑤口 |③---|
口口口口 |④--⑤|

accuracy: 99.5%
最終更新:2023年06月14日 01:44