アットウィキロゴ
Shadow and Truth
ONE III NOTES

ADVANCED

Level: 7
BPM: 121
Notes: 360

1
口口口口 |----|
口口口口 |----|
口口口口 |----|
口口口口 |----|
2
口口口口 |----|
口口口口 |----|
口口口口 |----|
口口口口 |----|
3
口口口口 |----|
口口口口 |----|
口口口口 |----|
口口口口 |----|
4
①口口口 |①---|
口口④口 |②---|
口③⑤口 |③--④|
口口口② |-⑤--|
5
口口口② |①---|
口③⑤口 |②---|
口口④口 |③--④|
①口口口 |-⑤--|
6
①口②口 |①---|
口③口口 |----|
口口④口 |②-③-|
口⑤口口 |④-⑤-|
7
口口口口 |①---|
②口口③ |--②-|
口口口口 |-③--|
口口口① |----|
8
口口②② |--①-|
口①口口 |----|
口口口口 |----|
口口口口 |--②-|
9
①①口口 |①---|
口口口口 |----|
口口②口 |----|
口口口口 |--②-|
10
①①②② |----|
口口口口 |----|
口口口口 |--①-|
口口口口 |②---|
11
口⑧⑦口 |①-②-|
②⑥⑤口 |③④-⑤|
⑩④③⑨ |⑥-⑦⑧|
①口口① |-⑨⑩-|
12
①⑩⑨② |①-②-|
口④口口 |③-④⑤|
口⑧⑦口 |⑥-⑦⑧|
③⑥⑤口 |--⑨⑩|
13
①口口口 |①-②-|
口⑤口② |③-④-|
③⑦⑥口 |⑤-⑥⑦|
口⑨⑧④ |-⑧⑨-|
14
⑤口口① |①-②-|
④⑨口口 |③-④-|
③口⑧口 |⑤-⑥⑦|
②⑦⑥口 |--⑧⑨|
15
口口①口 |①-②-|
口⑥⑨③ |③-④-|
②⑩⑦口 |⑤-⑥⑦|
④⑧口⑤ |⑧-⑨⑩|
16
②③④⑧ |①-②-|
⑦口口口 |③-④-|
口口口⑥ |⑤-⑥-|
⑤口①口 |⑦-⑧-|
17
②口口口 |①-②-|
口口口③ |③-④-|
④口口口
口①①口

口口⑤口
口⑥口口
口口⑦口 |⑤-⑥-|
口⑧口口 |⑦-⑧-|
18
口口口口 |①---|
口口口口 |②---|
②口口②
①口口①

④口口④
③口口③
⑤口口⑤ |③---|
口⑤⑤口 |④--⑤|
19
口口口口 |--①-|
口①②口 |②-③-|
口③口口
口口口口

口④口④
口口⑥口
口口口口 |④---|
⑤口⑤口 |⑤--⑥|
20
口口④④ |--①-|
①⑤⑤② |②-③-|
口口口口 |④--⑤|
③③口⑥ |---⑥|
21
口口口口 |-①②-|
③口口口 |③-④-|
④①②口
口口口口

口口⑥口
口⑦口口
口口⑧口 |⑤---|
⑤⑨口口 |⑥⑦⑧⑨|
22
口②③口 |--①-|
口口口口 |②③-④|
④口口口
口口口①

口口⑤⑤
口口口口
口口口口 |----|
口口口口 |---⑤|
23
口③口口 |-①②-|
⑤口口口 |③-④-|
口①②⑥ |⑤-⑥-|
⑦④口口 |⑦---|
24
④口⑦口 |--①-|
口口口① |②-③-|
②⑥⑤口 |④-⑤⑥|
口口⑧③ |-⑦-⑧|
25
①口口① |----|
口口口口 |----|
口口口口 |----|
口口口口 |---①|
26
口④④口 |-①-②|
①口口① |-③-④|
②口口②
③口口③

口口口口
⑧⑤⑤⑧
⑧⑥⑥⑧ |-⑤-⑥|
口⑦⑦口 |-⑦-⑧|
27
口口②② |----|
口③④口 |----|
口③④口 |--①-|
①①口口 |②-③④|
28
③③⑦口 |-①②-|
①⑤⑤② |③-④-|
①⑥⑥② |⑤---|
口口④④ |⑥--⑦|
29
⑨口口口 |-①②③|
①口⑥② |④⑤-⑥|
③⑦⑧④ |----|
⑤口口口 |⑦⑧-⑨|
30
口口口② |----|
口口口口 |①---|
④口口④ |②---|
①口口③ |③--④|
31
口④⑤口 |-①②-|
口①②口 |③-④⑤|
口口口口
口口③口

口口口口
口⑧⑧口
口口口口 |----|
⑥口口⑦ |⑥⑦-⑧|
32
③③口口 |-①②-|
①口口② |③-④-|
①口口②
口口④④

口⑦⑧口
口⑤⑤口
口⑥⑥口 |⑤---|
口口口口 |⑥-⑦⑧|
33
⑦⑦⑧⑧ |-①②③|
①口⑥② |④⑤-⑥|
③口口④ |----|
⑤口口口 |-⑦-⑧|
34
口口口口 |----|
③③④④ |-①-②|
口口口口 |----|
①①②② |-③-④|
35
口口口口 |----|
口口口口 |①---|
口①①口
口口口口

口口④④
②⑤⑥②
口⑤⑥口 |②-③-|
③③口口 |④-⑤⑥|
36
③③⑦口 |-①②-|
①⑤⑤② |③-④-|
①⑥⑥② |⑤---|
口口④④ |⑥--⑦|
37
⑨口口口 |-①②③|
①口⑥② |④⑤-⑥|
③⑦⑧④ |----|
⑤口口口 |⑦⑧-⑨|
38
口口口② |----|
口口口④ |①---|
口口口口 |②---|
①口口③ |③--④|
39
⑤①口⑥ |-①②③|
口口②口 |④-⑤⑥|
口③口口
口口④口

口口口口
口⑨⑨口
口口口口 |----|
⑦口口⑧ |⑦⑧-⑨|
40
③③口口 |-①②-|
①口口② |③-④-|
①口口②
口口④④

口口口口
口⑤⑤口
口⑥⑥口 |⑤---|
⑦口口⑦ |⑥--⑦|
41
③口口③ |-①-②|
②口口② |-③-④|
①口口①
口④④口

口⑦⑦口
口⑥⑥口
⑧⑤⑤⑧ |-⑤-⑥|
口口口口 |-⑦-⑧|
42
口①口口 |----|
口③②⑧ |---①|
口⑤④口 |②③④⑤|
口⑦⑥口 |⑥⑦-⑧|
43
③口口③ |----|
口口口口 |----|
口①②口 |----|
口口口口 |①②-③|
44
口①口口 |----|
口③②⑧ |---①|
口⑤④口 |②③④⑤|
口⑦⑥口 |⑥⑦-⑧|
45
口口口口 |----|
口口口口 |----|
口口口口 |----|
口口口口 |----|
46
①口口口 |-①②③|
口口⑤② |④-⑤-|
③口口口
口口口④

口口口⑥
⑪⑦口⑩
⑪口⑧⑩ |⑥-⑦⑧|
口⑨口口 |⑨-⑩⑪|

accuracy: 99.5%
最終更新:2023年06月14日 01:53