アットウィキロゴ
炉心融解 [2]
iroha

ADVANCED

Level: 6
BPM: 165
Notes: 404

1
口口口口 |----|
口口口口 |----|
口口口口 |----|
口口口口 |----|
2
口口口口 |①---|
口口口口 |----|
口口口口 |----|
①口口口 |----|
3
口口口口 |--①-|
口②口口 |----|
口口口① |②---|
口口口口 |----|
4
口口口① |①---|
口口口口 |----|
口口口口 |----|
口口口口 |----|
5
口口口口 |----|
口口口口 |----|
口口口口 |----|
口口口口 |----|
6
口口口口 |----|
口口口口 |----|
口口口口
口口口口
7
⑤口口② |①-②-|
③①①⑥ |③-④-|
⑦口口④ |⑤-⑥-|
口口口⑧ |⑦-⑧-|
8
口∨口口 |①---|
口|口口 |②---|
口|口③ |----|
口①②口 |③---|
9
口口口口 |----|
口口①口 |①---|
口口口② |----|
口口口口 |②---|
10
口口口口 |----|
口口口口 |①---|
口口口② |----|
口口①口 |②---|
11
口口口口 |①---|
口口②口 |②---|
③口口④ |③---|
口①口口 |④---|
12
口口口口 |①---|
口口口口 |②---|
口∨口③ |----|
口①②口 |③---|
13
口口口口 |----|
口口①口 |①---|
②口口③ |②---|
口①口口 |③---|
14
口口口口 |①---|
口①口口 |②---|
口∧口③ |----|
口口②口 |③---|
15
口口口口 |----|
口①①口 |①---|
②口口③ |②---|
口口口口 |③---|
16
②①口口 |①-②-|
口口口④ |--③-|
⑤口口口 |--④-|
③口口口 |--⑤-|
17
④口口口 |--①-|
口②③口 |--②-|
口口口① |③---|
口口口口 |④---|
18
口口①② |①-②-|
④口口口 |--③-|
口口口⑤ |--④-|
口口口③ |--⑤-|
19
口口口④ |--①-|
口③②口 |--②-|
①口口口 |③---|
口口口口 |④---|
20
②①口口 |①-②-|
口口口④ |--③-|
⑤口口口 |--④-|
③口口口 |--⑤-|
21
④口口口 |--①-|
口②③口 |--②-|
口口口① |③---|
口口口口 |④---|
22
口口①② |①-②-|
④口口口 |--③-|
口口口⑤ |--④-|
口口口③ |--⑤-|
23
口口口口 |--①-|
口③②口 |--②-|
①口④口 |③---|
口口口口 |--④-|
24
口口口口 |①---|
③口口① |--②-|
口②④口 |③---|
口口口口 |--④-|
25
口③②口 |①-②-|
④⑥⑦① |③-④-|
⑤口口⑧ |⑤-⑥-|
口口口口 |⑦-⑧-|
26
口口口口 |①---|
口口口① |--②-|
口②口口
口口口口

口口口口
③口口⑤
口口④口 |③---|
口口口口 |④-⑤-|
27
口口口口 |--①-|
口①口口 |②-③-|
口②口口
口③<口

口口口口
口口口口
口口⑤口 |----|
口④口口 |④-⑤-|
28
口口口口 |①---|
③口口① |--②-|
口②④口 |③---|
口口口口 |--④-|
29
口③②口 |①-②-|
④⑥⑦① |③-④-|
⑤口口⑧ |⑤-⑥-|
口口口口 |⑦-⑧-|
30
口口口口 |①---|
口口口① |--②-|
口②口口
口口口口

口口口口
③口口⑤
口口④口 |③---|
口口口口 |④-⑤-|
31
口口口口 |--①-|
口①口口 |②---|
口②<口
口口口口

口口口口
口口口口
口③口口 |③-④-|
口⑥④⑤ |⑤-⑥-|
32
⑦<>⑦ |①---|
口⑥②口 |②-③-|
口③⑤口 |④-⑤-|
①口口④ |⑥-⑦-|
33
①口口① |----|
口口口口 |--①-|
口④②③ |--②-|
口口口口 |③-④-|
34
口②②口 |①---|
③⑤⑤③ |②---|
①④④口 |③---|
口口口口 |④-⑤-|
35
口口口① |--①-|
②口口口 |②-③-|
口口口③ |--④-|
⑤④⑥口 |⑤-⑥-|
36
⑦<>⑦ |①---|
口②⑥口 |②-③-|
口⑤③口 |④-⑤-|
④口口① |⑥-⑦-|
37
①口口① |----|
口口口口 |--①-|
口④②③ |--②-|
口口口口 |③-④-|
38
口②②口 |①---|
③⑤⑤③ |②---|
①④④口 |③---|
口口口口 |④-⑤-|
39
①口口口 |--①-|
口④口② |②-③-|
③口口口 |--④-|
⑥口口⑤ |⑤-⑥-|
40
口⑦⑥口 |①---|
③⑤口② |②-③-|
口口④口 |④-⑤-|
口①①口 |⑥-⑦-|
41
口口口口 |①-②-|
口⑤①口 |③-④-|
④②口③ |--⑤-|
⑦口口⑥ |⑥-⑦-|
42
⑥口⑤口 |①---|
②④口② |②---|
口口③口 |③-④-|
口①①口 |⑤-⑥-|
43
口①口④ |--①-|
口⑤②口 |②-③-|
口口⑥③ |④-⑤-|
口口口⑦ |⑥-⑦-|
44
口⑦⑥口 |①---|
③⑤口② |②-③-|
口口④口 |④-⑤-|
口①①口 |⑥-⑦-|
45
口口口口 |①-②-|
口⑤①口 |③-④-|
④②口③ |--⑤-|
⑦口口⑥ |⑥-⑦-|
46
⑥口⑤⑥ |①---|
②④口② |②---|
口口③口 |③-④-|
口①①口 |⑤-⑥-|
47
口①口口 |--①-|
口口②口 |②-③-|
――③ |----|
口口口口 |----|
48
口口口口 |----|
口口口口 |----|
口口口① |①---|
口口口口 |----|
49
口口口口 |----|
口口口口 |----|
口口口口
口口口口
50
∨∨口口 |①---|
①①口口
口口口口
口口口口

口口∨∨
②②③③ |②---|
口口口口 |③---|
口口口②

口口口口
口口④④
口口口口
④口口口 |④---|
51
∨∨口口 |①---|
①①口口
口口口口
口口口口

口口口口
②②口口 |②-③-|
⑤⑤口④ |--④-|
口③②口 |--⑤-|
52
口口∨∨ |①---|
口口①①
口口口口
口口口口

口口口口
口口②② |--②-|
口⑤④口 |--③-|
口③口口 |④-⑤-|
53
③口口③ |①---|
口口⑥⑥ |②-③-|
口口④口 |--④-|
②⑤①口 |⑤-⑥-|
54
∨∨口口 |①---|
①①口口
口口口口
口口口口

⑤口口⑤
②②口口 |--②-|
④③③④ |--③-|
口口口口 |④-⑤-|
55
口①①口 |①---|
口③②④ |②-③-|
口口口口 |--④-|
口⑤口口 |--⑤-|
56
口口口口 |①---|
①口口③ |②-③-|
口⑥④口 |④-⑤-|
口⑤②口 |--⑥-|
57
口④③口 |①-②-|
口②①⑤ |③-④-|
口口⑥口 |⑤-⑥-|
口⑦口口 |⑦---|
58
∨∨口口 |①---|
①①口口
口口口口
口口口口

口口∨∨
②②③③ |②---|
口口口口 |③---|
口口口②

口口口口
口口④④
口口口口
④口口口 |④---|
59
∨∨口口 |①---|
①①口口
口口口口
口口口口

口口口口
②②口口 |②-③-|
⑤⑤口④ |--④-|
口③②口 |--⑤-|
60
口口∨∨ |①---|
口口①①
口口口口
口口口口

口口口口
口口②② |--②-|
口⑤④口 |--③-|
口③口口 |④-⑤-|
61
③口口③ |①---|
口口⑤⑤ |②-③-|
口④④口 |--④-|
②口①口 |--⑤-|
62
∨∨口口 |①---|
①①口口
口口口口
口口口口

⑤口口⑤
②②口口 |--②-|
④③③④ |--③-|
口口口口 |④-⑤-|
63
口①①口 |①---|
口③②④ |②-③-|
口口口口 |--④-|
口⑤口口 |--⑤-|
64
口口口口 |①---|
①口口③ |②-③-|
⑥⑦④口 |④-⑤-|
口⑤②口 |⑥-⑦-|
65
口④③口 |①-②-|
口②①⑤ |③-④-|
口口⑥口 |⑤-⑥-|
口⑦口口 |⑦---|
66
口口①② |①-②-|
④口口口 |--③-|
口口口⑤ |--④-|
口口口③ |--⑤-|
67
口口口④ |--①-|
口③②口 |--②-|
①口口口 |③---|
口口口口 |④---|
68
②①口口 |①-②-|
口口口④ |--③-|
⑤口口口 |--④-|
③口口口 |--⑤-|
69
⑤口口口 |①-②-|
口③④口 |--③-|
口口口② |④---|
口①①口 |⑤---|
70
口口口口 |①---|
口口口口
∨口口口
①口口口

口口口口
口口口口 |②---|
口口口∨ |③---|
②口口③

口口口口
口口口口
口口口口
口口口④ |④---|
71
∨口口口 |①---|
①口口口
口口口口
口口口口

口口口∨
②口口③ |②---|
口口口口 |③---|
口口口口

口口口口
口口口④
口口口口
口口口口 |④---|
72
口口口口 |①---|
口∨∨口 |----|
口①①口
口口口口

口口口口
口口口口
口②②口 |----|
口口口口 |②---|
73
①①①① |①---|
∧∧∧∧ |----|
口口口口
口口口口

②②②②
口口口口
口口口口 |----|
口口口口 |②---|
74
口口口口 |①---|
口∨∨口 |----|
口||口 |----|
口①①口 |----|
75
口口口口 |----|
口口口口 |----|
口口口口 |----|
口口口口 |----|
76
口口口口 |----|
口口口口 |----|
口口口口 |----|
口口口口 |----|
77
口口口口 |----|
口口口口 |----|
口口口口 |----|
口口口口 |----|
78
口口口口 |①---|
口口口口 |----|
口口口口 |----|
口①①口
最終更新:2019年11月03日 02:06