アットウィキロゴ
アドレナリン
U1 overground

BASIC

Level: 4
BPM: 140
Notes: 377

1
口口口口 |----|
口口口口 |----|
口口口口 |----|
口口口口 |----|
2
①口口① |①---|
②口口② |②---|
③口⑤③ |③---|
④口口④ |④-⑤-|
3
口④⑥口 |①-②-|
口③⑤口 |③-④-|
⑦②口口 |⑤---|
口①口口 |⑥-⑦-|
4
口⑥口④ |①-②-|
口⑤口③ |③-④-|
口口⑦② |⑤---|
口口口① |⑥-⑦-|
5
口④⑥口 |①-②-|
口③⑤口 |③-④-|
口②口口 |⑤---|
口①口口 |⑥---|
6
①口口① |①---|
②口口② |②---|
③口⑤③ |③---|
④口口④ |④-⑤-|
7
口④⑥口 |①-②-|
口③⑤口 |③-④-|
⑦②口口 |⑤---|
口①口口 |⑥-⑦-|
8
口⑥口④ |①-②-|
口⑤口③ |③-④-|
口口⑦② |⑤---|
口口口① |⑥-⑦-|
9
口④⑥口 |①-②-|
口③⑤口 |③-④-|
口②口口 |⑤---|
口①口口 |⑥---|
10
①口口① |①---|
口②③口 |②---|
口口④口 |③---|
口口口口 |④---|
11
口口口口 |①---|
口②③口 |②---|
口①④口 |③---|
口口口口 |④---|
12
口口口口 |①---|
①②④① |②---|
③口口③ |③---|
口口口口 |④---|
13
口④④口 |①---|
口③③口 |②---|
口②②口 |③---|
口①①口 |④---|
14
①口口① |①---|
口②③口 |②---|
口口④口 |③---|
口口口口 |④---|
15
口口口口 |①---|
口②③口 |②---|
口①口口 |③---|
口口口口 |----|
16
①口口① |①---|
口②③口 |②---|
口口④口 |③---|
口口口口 |④---|
17
口口口口 |①---|
①②④① |②---|
③口口③ |③---|
口口口口 |④---|
18
①②③④ |①-②-|
口⑤⑥口 |③-④-|
口⑦⑧口 |⑤-⑥-|
口口口口 |⑦-⑧-|
19
口口口口 |①-②-|
口⑦⑧口 |③-④-|
口⑤⑥口 |⑤-⑥-|
①②③④ |⑦-⑧-|
20
①口口② |①-②-|
③口口④ |③-④-|
⑤口口⑥ |⑤-⑥-|
⑦口口⑧ |⑦-⑧-|
21
口①②口 |①-②-|
口③④口 |③-④-|
口⑤⑥口 |⑤-⑥-|
口⑦⑧口 |⑦-⑧-|
22
①②③④ |①-②-|
口⑤⑥口 |③-④-|
口⑦⑧口 |⑤-⑥-|
口口口口 |⑦-⑧-|
23
口口口口 |①-②-|
口⑦⑧口 |③-④-|
口⑤⑥口 |⑤-⑥-|
①②③④ |⑦-⑧-|
24
①②③④ |①-②-|
⑤⑥⑦⑧ |③-④-|
口口口口 |⑤-⑥-|
口口口口 |⑦-⑧-|
25
口口口口 |①---|
口口口口 |----|
口①口口 |----|
口口口口 |----|
26
③①①③ |①---|
口口口口 |②---|
口口口口 |③---|
④②②④ |④---|
27
口口口口 |①---|
②①①② |----|
②①①② |②---|
口口口口 |----|
28
③①①③ |①---|
口口口口 |②---|
口口口口 |③---|
④②②④ |④---|
29
口口口口 |①---|
口②①口 |----|
口②①口 |②---|
口口口口 |----|
30
②②口口 |①---|
口口口口 |----|
口口口口 |②---|
口口①① |----|
31
④口口④ |①---|
口②②口 |②---|
③①①③ |③---|
口口口口 |④---|
32
②②口口 |①---|
口口口口 |----|
口口口口 |②---|
口口①① |----|
33
口口口口 |①---|
口②②口 |②---|
口①①口 |③---|
③口口③ |----|
34
口口口口 |①---|
①②③④ |②---|
①②③④ |③---|
口口口口 |④---|
35
口口④④ |①---|
口口③③ |②---|
②②口口 |③---|
①①口口 |④---|
36
口口口口 |①---|
①②③④ |②---|
①②③④ |③---|
口口口口 |④---|
37
①①口口 |①---|
②②口口 |②---|
口口③③ |③---|
口口④④ |④---|
38
①②③④ |①-②-|
口⑤⑥口 |③-④-|
口⑦⑧口 |⑤-⑥-|
口口口口 |⑦-⑧-|
39
口口口口 |①-②-|
口⑦⑧口 |③-④-|
口⑤⑥口 |⑤-⑥-|
①②③④ |⑦-⑧-|
40
口口②② |①---|
口口口口 |----|
口口口口 |②---|
①①口口 |----|
41
①①口口 |①---|
口②②口 |----|
口③③口 |②---|
口口口口 |③---|
42
口口①① |①---|
口口口口 |----|
口口口口 |②---|
②②口口 |----|
43
口口口口 |①---|
口①①口 |②---|
口②②口 |③---|
③③③③ |----|
44
①②③④ |①-②-|
口⑤⑥口 |③-④-|
口⑦⑧口 |⑤-⑥-|
口口口口 |⑦-⑧-|
45
口口口口 |①-②-|
口⑦⑧口 |③-④-|
口⑤⑥口 |⑤-⑥-|
①②③④ |⑦-⑧-|
46
①①口口 |①---|
口口口口 |----|
口口口口 |②---|
口口②② |----|
47
口口口口 |①---|
②②②② |----|
①①①① |②---|
口口口口 |----|
48
②②口口 |①---|
口口口口 |----|
口口口口 |②---|
口口①① |----|
49
口口口口 |①-②-|
①②③④ |③-④-|
①②③④ |⑤---|
口⑤⑤口 |----|
50
①②③④ |①-②-|
口⑤⑥口 |③-④-|
口⑦⑧口 |⑤-⑥-|
口口口口 |⑦-⑧-|
51
口口口口 |①-②-|
口⑦⑧口 |③-④-|
口⑤⑥口 |⑤-⑥-|
①②③④ |⑦-⑧-|
52
①②③④ |①-②-|
⑤⑥⑦⑧ |③-④-|
口口口口 |⑤-⑥-|
口口口口 |⑦-⑧-|
53
口口口口 |①-②-|
口口口口 |③-④-|
①②③④ |⑤-⑥-|
⑤⑥⑦⑧ |⑦-⑧-|
54
①②③④ |①-②-|
口⑤⑥口 |③-④-|
口⑦⑧口 |⑤-⑥-|
口口口口 |⑦-⑧-|
55
口口口口 |①-②-|
口⑦⑧口 |③-④-|
口⑤⑥口 |⑤-⑥-|
①②③④ |⑦-⑧-|
56
①②③④ |①-②-|
⑤⑥⑦⑧ |③-④-|
口口口口 |⑤-⑥-|
口口口口 |⑦-⑧-|
57
口口口口 |①---|
口口口口 |----|
口①①口 |----|
口口口口 |----|

accuracy: 100%
最終更新:2022年03月26日 03:28