アットウィキロゴ
レゾンデートル、前線より
中島由貴

EXTREME

Level: 9
BPM: 207
Notes: 680

1
口口口口 |----|
口口口口 |----|
口口口口 |----|
口口口口 |----|
2
①口口口 |①---|
①口口② |--②-|
③口口② |----|
③口口口 |③---|
3
口②①⑪ |①②③④|
口④③⑨ |⑤⑥⑦⑧|
口⑥⑤口 |⑨-⑩-|
口⑧⑦⑩ |--⑪-|
4
口口③口 |--①-|
口②口⑥ |②-③-|
①口⑤口 |--④-|
口④口口 |⑤-⑥-|
5
⑤①④① |①---|
②④①口 |②-③-|
口①口口 |--④-|
③口口口 |--⑤-|
6
口③口口 |--①-|
⑥口②口 |②-③-|
口⑤口① |--④-|
口口④口 |⑤-⑥-|
7
④③口② |①---|
口①口① |②-③-|
④口①⑤ |--④-|
口①口口 |--⑤-|
8
⑤口口④ |--①-|
口①口口 |②-③-|
口口②口 |④-⑤-|
⑦③口⑥ |⑥-⑦-|
9
⑧口①⑤ |①-②-|
⑧②⑥口 |③-④-|
口⑦③口 |⑤-⑥-|
口④口口 |⑦-⑧-|
10
口⑥口口 |--①-|
口③⑤⑦ |②-③-|
⑦口②④ |④-⑤-|
⑦口口① |⑥-⑦-|
11
③口②④ |--①-|
①口口口 |--②-|
口②③③ |--③-|
口②①① |--④-|
12
口口③口 |--①-|
口②口⑥ |②-③-|
①口⑤口 |--④-|
口④口口 |⑤-⑥-|
13
⑤①④① |①---|
②④①口 |②-③-|
口①口口 |--④-|
③口口口 |--⑤-|
14
口③口口 |--①-|
⑥口②口 |②-③-|
口⑤口① |--④-|
口口④口 |⑤-⑥-|
15
④③口② |①---|
口①口① |②-③-|
④口①⑤ |--④-|
口①口口 |--⑤-|
16
⑦口口④ |--①-|
⑦①⑤⑦ |②-③-|
口⑥②口 |④-⑤-|
口③口口 |⑥-⑦-|
17
口①①口 |--①-|
口②③口 |--②-|
①口口口 |--③-|
③③②②

口口口口
④<>④
口口口口
口口口口 |--④-|
18
口口口口 |----|
口口口口 |----|
口口口口 |----|
口口口口 |----|
19
口口口口 |①---|
口口口口
①口口①
∧口口∧

口口口口
②③③② |--②-|
②④④② |③-④-|
口口口口 |----|
20
口口口① |----|
口口口口 |①---|
③④口② |②---|
口口口口 |③-④-|
21
口口①口 |--①-|
⑥②口口 |②-③-|
口口③⑤ |--④-|
④口口口 |⑤-⑥-|
22
口②口① |①---|
⑤⑤< |②---|
口口③口 |③---|
口④④口 |④-⑤-|
23
口④③② |----|
口①①口 |--①-|
口口口口 |--②-|
口口口口 |③-④-|
24
①口口③ |①---|
口口口④ |--②-|
口口口⑤ |--③-|
口②②口 |④-⑤-|
25
口口口口 |----|
口①口口 |--①-|
口②口口 |②-③-|
口③口口

口口口口
口口④口
口口④口
口口口口 |④-|

口口口口
⑤――<
⑤――<
口口口口 |⑤-|
26
②口口① |①---|
④口口口 |②---|
④口口口 |③---|
④口口③ |④---|
27
②②口④ |--①-|
口口口④ |②---|
口③①① |③-④-|
口③口口 |----|
28
口口口口 |①---|
①⑥⑥口 |②-③-|
①口口口 |④-⑤-|
⑤④③② |--⑥-|
29
口⑤口① |--①-|
②口口口 |②-③-|
④口口③ |--④-|
口口⑥口 |⑤-⑥-|
30
口口口口 |①---|
口口口① |②---|
口②②口
口口口口

③口口③
口口口口
⑤―<④ |③---|
⑤―<④ |④-⑤-|
31
口口口口 |----|
口口④口 |----|
①③口口 |①-②-|
①口②口 |③-④-|
32
口①⑤口 |①---|
口④口② |--②-|
③口口② |--③-|
口口口口 |④-⑤-|
33
口口口口 |--①-|
③口口④ |②-③-|
口②口⑤ |--④-|
口口①⑥ |⑤-⑥-|
34
口口口口 |①---|
口口口口 |--②-|
口②口口
口①口口

口③口口
③|③口
口|口口 |----|
口∧口口 |③---|
35
口④口口 |--①-|
口口口口 |②-③-|
口⑥⑤④ |④-⑤-|
口③②① |⑥---|
36
①⑤口③ |①-②-|
③口⑤① |--③-|
口口口口 |④---|
②⑥口④ |⑤-⑥-|
37
口口①口 |--①-|
口①口口 |②---|
③④⑤⑥ |③-④-|
口口②口 |⑤-⑥-|
38
⑤①③口 |①-②-|
口③①⑤ |--③-|
口口口口 |④---|
⑥②④口 |⑤-⑥-|
39
口口口① |--①-|
①⑦口口 |②---|
口⑤⑥口 |③④⑤⑥|
口③④② |⑦---|
40
①⑤口③ |①-②-|
③口⑤① |--③-|
口口口口 |④---|
②⑥口④ |⑤-⑥-|
41
口口①口 |--①-|
口①口口 |②---|
③④⑤⑥ |③-④-|
口口②口 |⑤-⑥-|
42
①①口口 |①---|
||口口
||口口
∧∧口口

②②∨∨
口口|| |②-③-|
口口||
口口③③

口口口口
口口口口
口口口口 |--④-|
口口④④

口口口口
口口口口
⑤――<
⑤――< |⑤---|
43
――② |①-②-|
――②
①口口口
①口口口

口④④③
口⑤⑤③ |--③-|
口口口口 |④---|
口口口口 |⑤---|
44
口③口口 |①---|
②口④口 |--②-|
②①①⑤ |--③-|
口口口口 |④-⑤-|
45
①口口口 |--①-|
口②口口 |②-③-|
口口③口 |--④-|
④⑤⑥口 |⑤-⑥-|
46
口口口③ |①---|
①口④② |--②-|
①⑤口② |--③-|
口口口口 |④-⑤-|
47
口口①口 |--①-|
口②⑤⑤ |②-③-|
③口口口 |--④-|
口口④④ |⑤---|
48
③①③① |--①-|
口⑤口⑤ |②---|
口④②口 |③-④-|
口口口口 |--⑤-|
49
口③④⑤ |①---|
⑥口②口 |②---|
⑥口②口 |③-④-|
⑥⑥①口 |⑤-⑥-|
50
口⑥口口 |--①-|
口④口⑤ |②-③-|
口②⑦③ |④-⑤-|
口口口① |⑥-⑦-|
51
③⑥④口 |①-②-|
①口②⑦ |③-④-|
⑤口口⑦ |--⑤-|
口⑤口口 |⑥-⑦-|
52
⑥口⑤① |--①-|
口口②口 |②-③-|
⑥③④口 |--④-|
口口口④ |⑤-⑥-|
53
口②口① |--①-|
③口③④ |②-③-|
口③口④ |----|
③口③口 |--④-|
54
⑤口口④ |--①-|
口口口口 |②-③-|
①口③口 |④-⑤-|
⑦②口⑥ |⑥-⑦-|
55
口口④口 |--①-|
①口口口 |②-③-|
口②口④ |----|
口口③口 |--④-|
56
口④口口 |--①-|
⑤②口口 |②-③-|
①⑥③口 |--④-|
口口口口 |⑤-⑥-|
57
口口③口 |①---|
⑤口口⑥ |②-③-|
口口④② |--④-|
①口口② |⑤-⑥-|
58
②⑤⑤① |①---|
⑥④④⑥ |②---|
③口口③ |③-④-|
口①②口 |⑤-⑥-|
59
口口④口 |--①-|
⑤口口口 |--②-|
⑤②②③ |--③-|
①口③① |④-⑤-|
60
①⑤口⑥ |--①-|
口②口口 |②-③-|
口④③⑥ |--④-|
④口口口 |⑤-⑥-|
61
①口②口 |--①-|
④③口③ |②-③-|
④口③口 |----|
口③口③ |--④-|
62
④口口⑤ |--①-|
口口口口 |②-③-|
口③口① |④-⑤-|
⑥口②⑦ |⑥-⑦-|
63
口④口口 |--①-|
④口口① |②-③-|
口口②口 |----|
口③口口 |--④-|
64
口⑥③口 |--①-|
⑥口口③ |②-③-|
口①④口 |--④-|
口⑤②口 |⑤-⑥-|
65
口⑥③口 |--①-|
⑥口口③ |②-③-|
①口口④ |--④-|
⑤口口② |⑤-⑥-|
66
口口口① |----|
口口②口 |----|
口③口口 |--①-|
口口口口 |②-③-|
67
口口口口 |①---|
口口口口
口口口口
①><①

口口口口
口口口口 |②---|
口口口口
②口口②

口口口口
口口口口
③><③ |③---|
口口口口

口口口口
口口口口
④口口④
口口口口 |④---|
68
口口口口 |①---|
①><①
口口口口
口口口口

口∨口口
②⑤口② |②---|
口④口口 |--③-|
口③口口 |④-⑤-|
69
口口∨口 |----|
①①④口 |----|
口口③口 |①-②-|
口口②口 |③-④-|
70
口口口口 |----|
口④①① |----|
口口③口 |①-②-|
口②口口 |③-④-|
71
口口口口 |----|
③口口③ |①---|
②口口② |②---|
①口口① |③---|
72
①②①① |①---|
|口口| |----|
|口口| |②---|
∧口口∧ |----|
73
①口口① |①---|
口①①口 |②---|
口④③② |③---|
口口口口 |④---|
74
∨口①① |①---|
|口口口
①口口口
口口口口

口口口口
③④②② |--②-|
②口③③ |----|
口口口口 |③-④-|
75
口口①① |①---|
口口②口 |----|
口①口口 |②---|
②②口口 |----|
76
①①口② |①---|
①口口口 |----|
口口①口 |----|
口口口① |--②-|
77
口口③口 |--①-|
口②口⑥ |②-③-|
①口⑤口 |--④-|
口④口口 |⑤-⑥-|
78
⑤①④① |①---|
②④①口 |②-③-|
口①口口 |--④-|
③口口口 |--⑤-|
79
口③口口 |--①-|
⑥口②口 |②-③-|
口⑤口① |--④-|
口口④口 |⑤-⑥-|
80
④③口② |①---|
口①口① |②-③-|
④口①⑤ |--④-|
口①口口 |--⑤-|
81
⑤口口④ |--①-|
口①口口 |②-③-|
口口②口 |④-⑤-|
⑦③口⑥ |⑥-⑦-|
82
⑧口①⑤ |①-②-|
⑧②⑥口 |③-④-|
口⑦③口 |⑤-⑥-|
口④口口 |⑦-⑧-|
83
口⑥口口 |--①-|
口③⑤⑦ |②-③-|
⑦口②④ |④-⑤-|
⑦口口① |⑥-⑦-|
84
③口②④ |--①-|
①口口口 |--②-|
口②③③ |--③-|
口②①① |--④-|
85
口口③口 |--①-|
口②口⑥ |②-③-|
①口⑤口 |--④-|
口④口口 |⑤-⑥-|
86
⑤①④① |①---|
②④①口 |②-③-|
口①口口 |--④-|
③口口口 |--⑤-|
87
口③口口 |--①-|
⑥口②口 |②-③-|
口⑤口① |--④-|
口口④口 |⑤-⑥-|
88
④③口② |①---|
口①口① |②-③-|
④口①⑤ |--④-|
口①口口 |--⑤-|
89
⑦口口④ |--①-|
⑦①⑤⑦ |②-③-|
口⑥②口 |④-⑤-|
口③口口 |⑥-⑦-|
90
口①①口 |--①-|
口②③口 |--②-|
①口口口 |--③-|
③③②②

④<>④
④<>④
口口口口
口口口口 |--④-|
91
口口口口 |----|
口口口口 |----|
口口口口 |----|
口口口口 |----|
92
口口口口 |----|
口口口口 |----|
口口口口 |----|
口口口口 |----|
93
①口口① |①---|
①>①① |----|
口①<口 |----|
口口口口 |----|
94
②口口③ |----|
口⑤①⑤ |①---|
口①⑤口 |②-③-|
④⑤口口 |④-⑤-|
最終更新:2019年11月08日 04:07