アットウィキロゴ
SEED [2]
DJ YOSHITAKA

ADVANCED

Level: 8
BPM: 152
Notes: 490

1
口口口口 |----|
口口口口 |----|
口口口口 |----|
口口口口 |----|
2
口口口口 |①-②-|
②①①③ |--③-|
④①①⑤ |--④-|
口口口口 |--⑤-|
3
口口口口 |--①-|
①口口② |--②-|
③口口④ |--③-|
口口口口 |--④-|
4
口口口口 |--①-|
①口口② |--②-|
③口口④ |--③-|
口口口口 |--④-|
5
口口口口 |--①-|
①口口② |--②-|
③口口④ |--③-|
口口口口 |--④-|
6
②⑥⑧④ |①-②-|
⑥②④⑧ |③-④-|
口口口口 |⑤-⑥-|
⑦③①⑤ |⑦-⑧-|
7
②⑥⑧④ |①-②-|
⑥②④⑧ |③-④-|
口口口口 |⑤-⑥-|
⑦③①⑤ |⑦-⑧-|
8
②⑥⑧④ |①-②-|
⑥②④⑧ |③-④-|
口口口口 |⑤-⑥-|
⑦③①⑤ |⑦-⑧-|
9
③口口④ |①---|
口①②口 |②---|
口①②口 |③-④-|
⑤口口⑥ |⑤-⑥-|
10
⑤⑦②④ |①-②-|
口口②④ |③-④-|
③①⑧⑧ |⑤-⑥-|
口口⑥⑥ |⑦-⑧-|
11
⑤⑦②④ |①-②-|
口口②④ |③-④-|
③①⑧⑧ |⑤-⑥-|
口口⑥⑥ |⑦-⑧-|
12
口口口⑥ |--①-|
③口⑤口 |②-③-|
口②口④ |--④-|
①口口口 |⑤-⑥-|
13
⑤①②⑥ |①-②-|
口口口口 |③-④-|
口口口口 |⑤-⑥-|
⑦③④⑧ |⑦-⑧-|
14
④②⑦⑤ |①-②-|
④②口口 |③-④-|
⑧⑧①③ |⑤-⑥-|
⑥⑥口口 |⑦-⑧-|
15
④②⑦⑤ |①-②-|
④②口口 |③-④-|
⑧⑧①③ |⑤-⑥-|
⑥⑥口口 |⑦-⑧-|
16
⑥口口口 |--①-|
口⑤口③ |②-③-|
④口②口 |--④-|
口口口① |⑤-⑥-|
17
⑥②①⑤ |①-②-|
口口口口 |③-④-|
口口口口 |⑤-⑥-|
⑧④③⑦ |⑦-⑧-|
18
⑤⑦②④ |①-②-|
口口④② |③-④-|
③①⑧⑥ |⑤-⑥-|
口口⑥⑧ |⑦-⑧-|
19
⑤⑦④② |①-②-|
口口②④ |③-④-|
③①⑥⑧ |⑤-⑥-|
口口⑧⑥ |⑦-⑧-|
20
口口口⑥ |--①-|
③口⑤口 |②-③-|
口②口④ |--④-|
①口口口 |⑤-⑥-|
21
⑤①②⑥ |①-②-|
口口口口 |③-④-|
口口口口 |⑤-⑥-|
⑦③④⑧ |⑦-⑧-|
22
④②⑦⑤ |①-②-|
②④口口 |③-④-|
⑥⑧①③ |⑤-⑥-|
⑧⑥口口 |⑦-⑧-|
23
②④⑦⑤ |①-②-|
④②口口 |③-④-|
⑧⑥①③ |⑤-⑥-|
⑥⑧口口 |⑦-⑧-|
24
口口口口 |--①-|
口口口③ |②-③-|
口口②口
口口口①

口口口口
口④④口
口口口口 |④---|
⑤口口⑥ |⑤-⑥-|
25
①②口口 |①-②-|
口口④③ |③-④-|
⑤⑥口口 |⑤-⑥-|
口口口⑦ |⑦---|
26
――① |①---|
②③口口 |----|
口口口口 |----|
口口口口 |②-③-|
27
口口口口 |--①-|
口口口口 |----|
口口口① |②---|
②口口③ |③---|
28
②④口③ |①---|
口口口口 |--②-|
口①口口 |----|
口口口口 |③-④-|
29
口口口口 |①-②-|
口口②① |--③-|
口口口口 |----|
④口③口 |④---|
30
口②②口 |①---|
口口口口 |--②-|
口①①口 |----|
口③③口 |③---|
31
③口口② |①---|
③口口② |--②-|
口①①口 |----|
口口口口 |③---|
32
口∨∨口 |①---|
口||口 |----|
口||口 |----|
①①①① |----|
33
口口口口 |----|
口口口口 |----|
口口口口 |----|
口①①口 |①---|
34
①口口口 |①---|
|③口② |②---|
|口口口 |③---|
∧④⑤口 |④-⑤-|
35
口口口口 |--①-|
口②口① |--②-|
口口口口 |--③-|
口③口④ |--④-|
36
口口口口 |----|
口②口① |①---|
口口口口 |②---|
口③④口 |③-④-|
37
④口口口 |①-②-|
口口①口 |--③-|
口②口口 |----|
④口口③ |④---|
38
口②②口 |①---|
口口口口 |--②-|
口①①口 |----|
口③③口 |③---|
39
③口口② |①---|
③口口② |--②-|
口①①口 |----|
口口口口 |③---|
40
口①①口 |①---|
口||口 |----|
口∧∧口
口口口口

③②②③
|③③|
∧口口∧ |----|
口口口口 |②-③-|
41
①口口① |----|
口口口口 |----|
口口口口 |----|
口口口口 |①---|
42
口②口口 |①---|
①①①① |②---|
口③口口 |③---|
口⑤④口 |④-⑤-|
43
口口①口 |--①-|
口口口口 |--②-|
口口②口 |--③-|
口③口④ |--④-|
44
口①口口 |----|
口口口口 |①---|
口②口口 |②---|
口④③口 |③-④-|
45
口口①④ |--①-|
口③口口 |--②-|
口口②口 |--③-|
口口口口 |--④-|
46
口①口口 |----|
口口口口 |①---|
口②口口 |②---|
口④③口 |③-④-|
47
口口①口 |--①-|
口口口口 |--②-|
口口②口 |--③-|
口③口④ |--④-|
48
口①口口 |----|
口口口口 |①---|
口②口口 |②---|
口④③口 |③-④-|
49
口口①④ |--①-|
口③口口 |--②-|
口口②口 |--③-|
口口口口 |--④-|
50
口①①口 |①---|
①口口① |----|
口口口口 |----|
口口口口 |----|
51
口口口口 |----|
口口口口 |--①-|
①①<
口口口口

口口口口
口口口口
口②②口 |----|
口口口口 |--②-|
52
③⑥⑥① |①--②|
口口口口 |--③-|
口口口口 |-④--|
④⑤⑤② |⑤-⑥-|
53
③口⑥① |①--②|
口⑥口口 |--③-|
口口⑤口 |-④--|
④⑤口② |⑤-⑥-|
54
④④⑤① |①--②|
口⑤口① |--③-|
③口⑥口 |-④--|
③⑥②② |⑤-⑥-|
55
④④⑥① |①--②|
口⑥口① |--③-|
③口⑤口 |-④--|
③⑤②② |⑤-⑥-|
56
③⑥⑥① |①--②|
口口口口 |--③-|
口口口口 |-④--|
④⑤⑤② |⑤-⑥-|
57
③口⑥① |①--②|
口⑥口口 |--③-|
口口⑤口 |-④--|
④⑤口② |⑤-⑥-|
58
③口⑤① |①--②|
口⑤口口 |--③-|
口口⑥口 |-④--|
④⑥口② |⑤-⑥-|
59
④口⑥① |①--②|
口⑥口口 |--③-|
口口⑤口 |-④--|
③⑤口② |⑤-⑥-|
60
口⑦⑦④ |①-②-|
③口①③ |③-④-|
③②口③ |-⑤--|
口⑥⑥⑤ |⑥-⑦-|
61
口⑦口④ |①-②-|
③①⑦③ |③-④-|
③⑥②③ |-⑤--|
口口⑥⑤ |⑥-⑦-|
62
①⑤④④ |①--②|
①口⑤口 |--③-|
口⑥口③ |-④--|
②②⑥③ |⑤-⑥-|
63
①⑥④④ |①--②|
①口⑥口 |--③-|
口⑤口③ |-④--|
②②⑤③ |⑤-⑥-|
64
①口⑦④ |①-②-|
②⑥口口 |③-④-|
③口⑦口 |-⑤--|
口⑥口⑤ |⑥-⑦-|
65
①口⑦④ |①-②-|
②⑥口口 |③-④-|
③口⑦口 |-⑤--|
口⑥口⑤ |⑥-⑦-|
66
①⑤口③ |①--②|
口口⑤口 |--③-|
口⑥口口 |-④--|
②口⑥④ |⑤-⑥-|
67
①⑥⑥④ |①--②|
口口口口 |--③-|
口口口口 |-④--|
②⑤⑤③ |⑤-⑥-|
68
口口口口 |①---|
口①①口 |----|
口①①口 |----|
口口口口 |----|
最終更新:2019年11月03日 02:12