アットウィキロゴ
SEED [2]
DJ YOSHITAKA

EXTREME

Level: 9
BPM: 152
Notes: 683

1
口口口口 |----|
口口口口 |----|
口口口口 |----|
口口口口 |----|
2
⑨⑧②③ |①-②③|
口口口口 |--④⑤|
⑦①①⑤ |--⑥⑦|
⑥口口④ |--⑧⑨|
3
⑧⑦①② |--①②|
口口口口 |--③④|
⑥口口④ |--⑤⑥|
⑤口口③ |--⑦⑧|
4
⑧⑦①② |--①②|
口口口口 |--③④|
⑥口口④ |--⑤⑥|
⑤口口③ |--⑦⑧|
5
⑧⑦①② |--①②|
口口口口 |--③④|
⑥口口④ |--⑤⑥|
⑤口口③ |--⑦⑧|
6
口口口⑦ |①-②-|
③⑥⑧⑤ |③-④-|
⑤④②③ |⑤-⑥-|
⑦①①口 |⑦-⑧-|
7
⑤③①口 |①-②-|
⑦⑥⑧口 |③-④-|
口④②⑦ |⑤-⑥-|
口①③⑤ |⑦-⑧-|
8
口⑦⑤③ |①-②-|
口⑥⑧① |③-④-|
①④②口 |⑤-⑥-|
③⑤⑦口 |⑦-⑧-|
9
①口口⑤ |①②③④|
口口口⑥ |-⑤⑥⑦|
④③②⑦
口口口①

口⑧⑨口
口⑫⑬口
口⑭⑮口 |⑧⑨⑩⑪|
口⑩⑪口 |⑫⑬⑭⑮|
10
口⑨口② |①-②-|
⑧⑥口⑤ |③④⑤⑥|
①口⑦⑦ |--⑦-|
①④口③ |--⑧⑨|
11
口⑦口① |--①-|
口⑤⑧④ |②③④⑤|
口口⑥⑥ |--⑥-|
口③口② |--⑦⑧|
12
口⑧口① |--①-|
⑦⑤口④ |②③④⑤|
口口⑥⑥ |--⑥-|
口③口② |--⑦⑧|
13
口口口口 |-①②③|
口②③口 |-④⑤⑥|
①口口口
口⑥⑤④

口⑩⑨口
⑧口⑬⑦
口⑫⑪口 |⑦⑧⑨⑩|
口口口口 |⑪⑫⑬-|
14
口⑨口② |①-②-|
⑧⑥口⑤ |③④⑤⑥|
口口⑦⑦ |--⑦-|
①④口③ |--⑧⑨|
15
口⑦口① |--①-|
口⑤⑧④ |②③④⑤|
口口⑥⑥ |--⑥-|
口③口② |--⑦⑧|
16
口⑧口① |--①-|
⑦⑤口④ |②③④⑤|
口口⑥⑥ |--⑥-|
口③口② |--⑦⑧|
17
口口口口 |-①②③|
口②③口 |-④⑤⑥|
①口口口
口⑥⑤④

口⑩⑨口
⑧口⑬⑦
口⑫⑪口 |⑦⑧⑨⑩|
口口口口 |⑪⑫⑬-|
18
⑥⑨⑤② |①-②-|
口口⑪口 |③④⑤⑥|
①⑩⑧⑧ |⑦-⑧-|
①④⑦③ |⑨-⑩⑪|
19
⑥⑨⑤② |①-②-|
口口⑩口 |③④⑤⑥|
口⑪⑧⑧ |⑦-⑧-|
①④⑦③ |⑨-⑩⑪|
20
⑥⑨⑤② |①-②-|
口口⑪口 |③④⑤⑥|
口⑩⑧⑧ |⑦-⑧-|
①④⑦③ |⑨-⑩⑪|
21
口口④口 |①②③④|
口③口口 |-⑤⑥⑦|
②口口口
①⑦⑥⑤

口⑨口⑧
⑬口⑫口
⑮⑪⑭⑩ |⑧⑨⑩⑪|
口口口口 |⑫⑬⑭⑮|
22
②⑤⑨⑥ |①-②-|
口⑪口口 |③④⑤⑥|
⑧⑧⑩口 |⑦-⑧-|
③⑦④① |⑨-⑩⑪|
23
②⑤⑨⑥ |①-②-|
口⑩口口 |③④⑤⑥|
⑧⑧⑪口 |⑦-⑧-|
③⑦④① |⑨-⑩⑪|
24
②⑤⑪⑥ |①-②-|
⑦⑩口口 |③④⑤⑥|
⑧⑨⑫口 |⑦⑧⑨⑩|
③口④① |⑪-⑫-|
25
⑧④⑨口 |①②③④|
口⑫③口 |-⑤⑥⑦|
⑩⑫⑪② |⑧⑨⑩⑪|
⑤⑥⑦① |⑫---|
26
②④③① |①---|
②口口| |--②-|
口口口| |----|
口口口∧ |③-④-|
27
口口口口 |----|
②口①口 |①---|
口口③口 |②---|
口口口口 |③---|
28
口口口口 |①---|
口口口口
口口口口
①①口口

②②口③
||口口 |--②-|
||④口 |----|
∧∧口口 |③-④-|
29
④④①口 |①-②-|
口口口② |--③-|
④口口口 |----|
④口口③ |④---|
30
口口口口 |①---|
口∨∨口
口||口
口①①口

口口口口
②口口② |--②-|
∧口口∧
口②②口

口口口口
③口口③
口口口口 |----|
③口口③ |③---|
31
口∨∨口 |①---|
口||口
口①①口
口口口口

∨口口∨
|口口| |--②-|
②②②②
口口口口

口口口口
口③③口
③口口③ |----|
口口口口 |③---|
32
②②③∨ |①---|
口④口| |--②-|
口口口| |----|
①①口① |③-④-|
33
口口口口 |--①-|
口口口口 |--②-|
③口口口 |--③-|
①口②④ |④---|
34
②口口① |①---|
口④口| |②---|
③⑤口∧ |③---|
口口口口 |④-⑤-|
35
①口口口 |--①-|
口口③口 |--②-|
②口口口 |--③-|
口口④口 |--④-|
36
口口口口 |①---|
口口口口
口口口口
①①口口

②②口③
||口口 |--②-|
||④口 |----|
∧∧口口 |③-④-|
37
④④①口 |①-②-|
口口口② |--③-|
④口口口 |----|
④口口③ |④---|
38
口口口口 |①---|
口∨∨口
口||口
口①①口

口口口口
②口口② |--②-|
∧口口∧
口②②口

口口口口
③口口③
口口口口 |----|
③口口③ |③---|
39
口∨∨口 |①---|
口||口
口①①口
口口口口

∨口口∨
|口口| |--②-|
②②②②
口口口口

口口口口
口③③口
③口口③ |----|
口口口口 |③---|
40
②口⑤① |①---|
口④|| |②---|
③⑤∧| |③---|
口口口∧ |④-⑤-|
41
①④口口 |--①-|
口口口口 |--②-|
②③口口 |--③-|
口口口口 |--④-|
42
①口①① |①---|
①②口口 |②---|
口口口口
口口口②

口口口口
④口④口
⑤口⑤口 |③---|
③口③口 |④-⑤-|
43
②口③① |--①-|
③口口口 |--②-|
口口口④ |--③-|
②④口① |--④-|
44
口口口口 |----|
③①③口 |①---|
④口④口 |②---|
②口②① |③-④-|
45
②口口① |--①-|
口口口口 |--②-|
口口口口
②口口①

口④③④
③口口口
口口口口 |--③-|
口口口口 |--④-|
46
口口口口 |----|
口③①③ |①---|
口④口④ |②---|
①②口② |③-④-|
47
①③口② |--①-|
口口口③ |--②-|
④口口口 |--③-|
①口④② |--④-|
48
口口口口 |----|
口③①③ |①---|
口④口④ |②---|
①②口② |③-④-|
49
①口口② |--①-|
口口口口 |--②-|
口口口口
①口口②

④③④口
口口口③
口口口口 |--③-|
口口口口 |--④-|
50
口口口口 |①---|
①①口 |----|
口①①< |----|
口口口口 |----|
51
口口口口 |----|
口口①口 |--①-|
口①口⑤ |②-③-|
④②①③ |④-⑤-|
52
①口①口 |①--②|
③①口④ |③-④-|
口④②口
口口②口

⑧⑥⑧口
口⑦口口
⑤口口⑦ |⑤⑥--|
⑦口口⑥ |⑦-⑧-|
53
口口口① |①--②|
④口①③ |③-④-|
口②④口
口②口口

口⑧⑥⑧
口口⑦口
⑦口口⑤ |⑤⑥--|
⑥口口⑦ |⑦-⑧-|
54
①口口口 |①--②|
口①口③ |③-④-|
口②②口
口④④口

口⑦口口
⑥⑧口口
⑤口口口 |⑤⑥--|
⑥口口⑦ |⑦-⑧-|
55
口⑧口① |①--②|
③口①⑥ |③-④-|
⑦②②⑤ |⑤⑥--|
⑦④④⑥ |⑦-⑧-|
56
①口①口 |①--②|
③①口④ |③-④-|
口④②口
口口②口

⑧⑥⑧口
口⑦口口
⑤口口⑦ |⑤⑥--|
⑦口口⑥ |⑦-⑧-|
57
口口口① |①--②|
④口①③ |③-④-|
口②④口
口②口口

口⑧⑥⑧
口口⑦口
⑦口口⑤ |⑤⑥--|
⑥口口⑦ |⑦-⑧-|
58
①口口口 |①--②|
口①口③ |③-④-|
口②②口
口④④口

口⑦口口
口⑧口口
⑤口口⑥ |⑤⑥--|
⑥口口⑦ |⑦-⑧-|
59
口⑧⑦① |①--②|
③口①口 |③-④-|
⑥②②⑤ |⑤⑥--|
⑦④④⑥ |⑦-⑧-|
60
口⑨口① |①②③④|
④⑤②⑥ |⑤-⑥-|
⑤③⑤⑦ |-⑦--|
⑧⑥口⑦ |⑧-⑨-|
61
①口⑨口 |①②③④|
⑥②⑤④ |⑤-⑥-|
⑦⑤③⑤ |-⑦--|
⑦口⑥⑧ |⑧-⑨-|
62
①口口口 |①--②|
口①口③ |③-④-|
口②②口
口④④口

口⑦口口
⑥⑧口口
⑤口口口 |⑤⑥--|
⑥口口⑦ |⑦-⑧-|
63
口⑧口① |①--②|
③口①⑥ |③-④-|
⑦②②⑤ |⑤⑥--|
⑦④④⑥ |⑦-⑧-|
64
②⑦⑧① |①-②-|
④②①④ |③-④-|
⑥⑤③口 |⑤⑥--|
⑥⑧⑦③ |⑦-⑧-|
65
①口口② |①-②-|
④①②④ |③-④-|
口③口口
③口口口

口⑧⑦⑧
口口口口
⑦口⑤⑥ |⑤⑥--|
口口口⑥ |⑦-⑧-|
66
①口口口 |①--②|
口①口③ |③-④-|
口②②口
口④④口

口⑦口口
口⑧口口
⑤口口⑥ |⑤⑥--|
⑥口口⑦ |⑦-⑧-|
67
口⑧⑦① |①--②|
③口①口 |③-④-|
⑥②②⑤ |⑤⑥--|
⑦④④⑥ |⑦-⑧-|
68
口口口口 |①---|
①①①① |----|
①①< |----|
口口口口 |----|
69
口口口口 |----|
口口口口 |----|
口口口口 |----|
口口口口 |----|
70
口口口口 |①---|
口口口口 |----|
口①①口 |----|
口口口口 |----|
最終更新:2019年11月03日 02:12