アットウィキロゴ
Pink Rose [2]
Kiyommy+Seiya

EXTREME

Level: 9
BPM: 116-146
Notes: 614

BPM: 132
1
口口①口 |----|
口②口口 |----|
口口③口 |①-②-|
口④口口 |③-④-|
2
口口口④ |①-②-|
口口口③ |③-④-|
①<口②
口口口①

口口口口
口口⑧⑧
⑤⑦口口 |⑤-⑥-|
口口⑥口 |⑦-⑧-|
3
口口口口 |①---|
①①口口 |②-③-|
口⑤口口 |----|
③口④② |④-⑤-|
4
口口口④ |①-②-|
口④①③ |③-④-|
③口口②
口口口①

⑧⑧口
⑦口⑦口
口⑥⑥口 |⑤-⑥-|
口口⑤口 |⑦-⑧-|
5
⑤④⑤④ |①-②-|
口口口③ |③-④-|
口口口② |----|
口口口① |⑤---|
6
口④口④ |①-②-|
口口口③ |③-④-|
口口口②
口①口①

口口⑤口
⑤口口口
口⑥口口 |⑤-⑥-|
⑦口⑦⑧ |⑦-⑧-|
7
①⑤口① |①---|
∨②③⑤ |②-③-|
⑥③②口 |--④-|
④口⑥④ |⑤-⑥-|
8
⑥⑥⑦⑦ |①-②-|
⑤④③⑧ |③-④-|
③口②① |⑤-⑥-|
口④口口 |⑦-⑧-|

BPM: 125
9
②口口口 |①---|
口口口口 |②---|
口①①口
口口口口

BPM: 120
口口口口
口口口口
口口口口 |③---|
口口③③

BPM: 116
口口口口
④口口口
口口口口
口口口口 |④---|
10
④⑧>① |①-②-|
③⑦口口 |③-④-|
②⑥口口 |⑤-⑥-|
①⑤口口 |⑦-⑧-|

BPM: 146
11
①口口口 |①---|
口口口口 |----|
口口口口 |----|
口口口口 |----|
12
口口④① |①-②-|
③③②④ |③-④-|
①①口②
口口口口

口口口口
口口口口
口⑤口口 |----|
⑤口⑥⑥ |⑤-⑥-|
13
口⑤①口 |----|
②②④① |①-②-|
③⑤口③ |--③-|
口口④口 |④-⑤-|
14
②口②< |--①-|
∧口口① |②---|
口口口口 |----|
口口口① |----|
15
①①①口 |①---|
口①②口 |②---|
口③②口 |③---|
口③④④ |④---|
16
口④口口 |①-②-|
④②③③ |③-④-|
②口①①
口口口口

口口口口
口口口口
口口⑤口 |----|
⑥⑥口⑤ |⑤-⑥-|
17
口①⑤口 |----|
①④②② |①-②-|
③口⑤③ |--③-|
口④口口 |④-⑤-|
18
②口② |--①-|
①口口∧ |②---|
口口口口
①口口口

口③⑤③
口④口口
口口口口 |----|
口口口口 |③-④⑤|
19
口口口⑤ |①-②-|
②口⑥① |③-④-|
④⑦口③ |⑤-⑥-|
⑧口口口 |⑦-⑧-|
20
口口口口 |①---|
口口口①
口口∨∧
口口①口

⑤口③口
④口④② |--②-|
③口⑤口 |--③-|
口口②口 |④-⑤-|
21
口①口④ |①---|
口口口② |②-③-|
④①口口 |----|
③口③② |④---|
22
②③①口 |①---|
①③②口 |②-③-|
口口口口
口口口口

口口口口
⑤口口口
口口口④ |--④-|
⑤口口④ |--⑤-|
23
口口口口 |①---|
口②口② |②-③-|
口口①口
口口③口

⑤口口④
口口口口
口口⑥口 |④--⑤|
口口口口 |--⑥-|
24
③③< |①---|
口②②口 |②-③-|
口口口口
①口口①

口④④口
④口口④
口口口口 |----|
口口口口 |④---|
25
③口口③ |①---|
口口口④ |②-③-|
④②②口 |----|
①口口① |④---|
26
④②③⑤ |①---|
①③②口 |②-③-|
口⑥口① |④--⑤|
口口口口 |--⑥-|
27
口①口口 |①--②|
口口口③ |--③-|
口口口口
口②口口

口⑥口口
口⑦④口
口口⑤口 |④-⑤-|
口口口口 |⑥-⑦-|
28
口口口口 |①---|
①口口口
∧∨口口
口①口口

口③口⑤
②④口④ |--②-|
口⑤口③ |--③-|
口②口口 |④-⑤-|
29
④口①口 |①---|
②口口口 |②-③-|
口口①④ |----|
②③口③ |④---|
30
口①③② |①---|
口②③① |②-③-|
口口口口
口口口口

口口口口
口口口⑤
④口口口 |--④-|
④口口⑤ |--⑤-|
31
④口⑦⑤ |①---|
②口②⑥ |②-③-|
口①口口 |④--⑤|
口③口口 |⑥-⑦-|
32
口②⑥口 |①-②-|
①口③⑤ |③-④-|
口④口口 |----|
口④口口 |⑤-⑥-|
33
⑤②⑤③ |①-②-|
①口④口 |③-④-|
口口④口 |--⑤-|
⑥口⑥口 |--⑥-|
34
⑥口口④ |①--②|
①口口② |--③-|
⑥口口④ |④-⑤-|
⑦③口⑤ |⑥-⑦-|
35
口口口口 |--①-|
口②②口 |②---|
口①①口
口②②口

③口口④
口口口口
口⑤口口 |③--④|
口口口口 |--⑤-|
36
⑨①⑧⑯ |①②③④|
③⑪⑭⑥ |⑤⑥⑦⑧|
⑤⑬⑫④ |⑨⑩⑪⑫|
⑮⑦②⑩ |⑬⑭⑮⑯|
37
口①<口 |①---|
①口口口
口口口口
口口口口

口②口口
口口③口 |②---|
⑤③口④ |③---|
口⑤④口 |④-⑤-|
38
口口①口 |----|
口③②① |①-②-|
⑤④③口 |③-④-|
⑥⑤口口 |⑤-⑥-|
39
口口>① |①---|
口口口口
口口>①
口口口口

③<口②
口口口口 |②---|
③<口② |③---|
口口口口

④口⑤口
口④口口
④口口口
口口口口 |④-⑤-|
40
口>―② |--①-|
口口①口 |②---|
口口口口
口口口口

③口口④
口口口口
口口口口 |③-④-|
⑤口口口 |⑤---|
41
口口口口 |①-②-|
⑤⑥⑦⑧ |③-④-|
④③②① |⑤-⑥-|
口口口口 |⑦-⑧-|
42
口口口口 |①-②-|
⑤⑥⑦⑧ |③-④-|
④③②① |⑤-⑥-|
口口口口 |⑦-⑧-|
43
④③②① |①-②-|
口口口口 |③-④-|
口口口口
口口口口

口∨口口
∨⑧∨口
⑧口⑧∨ |⑤-⑥-|
⑤⑥⑦⑧ |⑦-⑧-|
44
口口口口 |----|
口口口口 |----|
口口口口 |----|
口口口口 |----|
45
口口口口 |--①-|
口①口口 |----|
①口①口
口口口①

口口②口
④⑤③口
口③⑤④ |②-③-|
口②口口 |④-⑤-|
46
――① |①---|
口口口口 |----|
口口口口
①――<

③口口②
口口口口
④口口口 |--②-|
②口④③ |③-④-|
47
口②口口 |①---|
口口③② |②-③-|
口①口口
口口口口

口口口口
④口口口
口④口⑤ |----|
口口⑤口 |④-⑤-|
48
①口③口 |①---|
口①口② |②-③-|
③口口口
口②口口

口⑤∨口
④⑥⑥<
⑥⑥⑤ |--④-|
口∧④口 |⑤-⑥-|
49
④口口④ |----|
口①①③ |--①-|
②①①口 |②-③-|
口口口口 |④---|
50
口口④⑥ |①---|
②⑤⑥④ |②-③-|
③口⑤口 |--④-|
①③②① |⑤-⑥-|
51
②③口口 |①---|
口口口口 |②-③-|
口①口口
①口③②

口口口④
口口⑤④
⑥⑤口 |--④-|
⑥口口 |⑤-⑥-|
52
②口口口 |--①-|
②口口口 |--②-|
口①口口
口①口口

口③口口
口③⑤④
口⑥⑤④ |③-④-|
口⑥口口 |⑤-⑥-|
53
②③②① |①---|
②④⑥⑤ |②---|
⑤⑥④口 |③-④-|
①口③口 |⑤-⑥-|
54
①――< |①---|
口口口口 |----|
口口口口
――①

②口口③
口口口口
口口口④ |--②-|
③④口② |③-④-|
55
口口②口 |①---|
②③口口 |②-③-|
口口①口
口口口口

口口口口
口口口④
⑤口④口 |----|
口⑤口口 |④-⑤-|
56
口③口① |①---|
②口①口 |②-③-|
口口口③
口口②口

⑥∨⑤⑥
⑥⑥④
⑤⑥⑥< |--④-|
口④∧口 |⑤-⑥-|
57
④口口④ |----|
③①①口 |--①-|
口①①② |②-③-|
口口口口 |④---|
58
口口口口 |①---|
口口口口 |--②-|
口口口②
①口②①

口④③口
④口口③
⑤口⑥口 |③-④-|
口⑤口⑥ |⑤-⑥-|
59
②口口① |①---|
口②①口 |②-③-|
口③口口
③口口口

口④⑤口
④口口⑤
口口口口 |--④-|
⑥⑥< |⑤-⑥-|
60
②口口② |--①-|
⑤③④口 |--②-|
口④③⑤ |--③-|
口①①口 |④-⑤-|
61
④②②口 |①---|
④③③① |②---|
①③③④ |③---|
口②②④ |④---|
62
口>①① |①---|
口口口∧ |----|
∨口口口 |----|
①①<口 |----|
63
口口①① |----|
口口口口 |----|
口口口口 |----|
①①口口 |--①-|
64
口④口口 |①-②-|
④②③③ |③-④-|
②口①①
口口口口

口口口口
口口口口
口口⑤口 |----|
⑥⑥口⑤ |⑤-⑥-|
65
口①⑤口 |----|
①④②② |①-②-|
③口⑤③ |--③-|
口④口口 |④-⑤-|
66
②口② |--①-|
①口口∧ |②---|
口口口口 |----|
①口口口 |----|
67
口①①① |①---|
口②①口 |②---|
口②③口 |③---|
④④③口 |④---|
最終更新:2019年11月03日 02:16