アットウィキロゴ
イ号零型 [2]
あさき

ADVANCED

Level: 7
BPM: 170
Notes: 363

1
口口口口 |----|
口口口口 |----|
口口口口 |----|
口口口口 |----|
2
口②①口 |----|
口口口口 |----|
口口口口 |①---|
口口口口 |②---|
3
①>―② |①---|
口口口口 |----|
口口口口 |②---|
口口口口 |----|
4
口口口① |----|
口③②口 |①---|
口⑤④口 |②-③-|
口口口口 |④-⑤-|
5
口口口口 |①---|
∨口口口 |----|
|口口口 |②---|
②口①口 |----|
6
口口②口 |----|
口口口③ |①---|
口口口口 |②---|
①口口口 |③---|
7
口口口口 |①---|
口②<口 |----|
口口①口 |②---|
口口口口 |----|
8
②口口口 |①---|
③①口口 |----|
口口口口 |----|
口口口口 |②-③-|
9
口口口口 |①---|
口口③口 |----|
①口口口 |②---|
口口②口 |--③-|
10
口口口口 |①---|
口口口① |----|
口口口|
口口口∧

口口口口
口口口②
口口口口 |----|
口口口口 |②---|
11
①口口口 |①---|
|口口口 |--②-|
|口口口 |----|
∧③②① |③---|
12
③③③口 |--①-|
口口口口 |----|
口②②口 |②---|
①口口口 |③---|
13
口口口① |①---|
口口口| |--②-|
①②③∧ |----|
口口口口 |③---|
14
∨口口① |①-②-|
①口口口 |----|
口口口②
口口口口

口④④口
④口口口
口③③口 |③---|
口口口口 |④---|
15
口口口口 |①---|
口>―① |--②-|
口口口口 |----|
口③②① |③---|
16
∨④④口 |①-②-|
①口口① |----|
口③③口 |③---|
②口口口 |④---|
17
口口口① |①---|
①口口| |--②-|
①②③∧ |----|
口口口口 |③---|
18
①口口① |①-②-|
|④③口 |----|
∧⑥⑤② |③-④-|
口口口口 |⑤-⑥-|
19
①口口① |①---|
②口口| |----|
口口口∧ |----|
口口口口 |--②-|
20
口口口① |①---|
口口口口 |----|
①<口口
口口口口

口②③口
口口口口
②口口口 |----|
口口口口 |②-③-|
21
口口口口 |①-②-|
口口口① |③---|
口口口②
口口>③

口口口口
④口口口
口口口口 |----|
口口口④ |--④-|
22
①<口口 |①---|
口口口口 |----|
口口口口
口口口口

②口>②
口口口口
口口口口 |②---|
口口口口

口口口③
③口口口
口口口口
口口口口 |--③-|
23
口口口口 |①---|
口口口口 |----|
①―<口
口口口口

口口口口
口口③口
②口②口 |----|
口口口口 |②-③-|
24
口口①< |①---|
口口口口 |----|
口口口口
口口口口

②②口
口口口口
口口口口 |②---|
口口口口 |----|
25
口①口口 |①-②-|
口口口③ |③---|
口①②口 |----|
――③ |----|
26
①口口口 |①---|
②③④口 |②---|
口⑤⑥口 |③-④-|
口口口口 |⑤-⑥-|
27
口口口口 |①---|
①②口① |----|
口口③口 |--②-|
口④口① |③-④-|
28
口口口口 |----|
口口③口 |----|
口②口口 |①-②-|
口口①口 |③---|
29
①口口① |①---|
③口口口 |----|
口口口口 |--②-|
②口口口 |--③-|
30
口口口口 |----|
口口口① |----|
口口口口 |----|
口口口口 |①---|
31
①②③④ |①-②-|
口⑦⑥⑤ |③-④-|
口口口口 |--⑤-|
口口口① |⑥-⑦-|
32
口口口口 |----|
①口口口 |----|
口口口口 |----|
口口口口 |①---|
33
口口口① |①-②-|
口口口② |③-④-|
口⑤口③ |--⑤-|
①口口④ |----|
34
口口口口 |①---|
口①口口 |----|
口口口口 |----|
口口②口 |②---|
35
②口口② |①---|
口③①口 |--②-|
口口④口 |--③-|
口⑤口口 |④-⑤-|
36
口口口口 |----|
口口口口 |----|
口口口口 |----|
口①口口 |①---|
37
②口口② |①---|
口①③口 |--②-|
口④口口 |--③-|
口口⑤口 |④-⑤-|
38
口口口口 |----|
口口①口 |----|
口口口口 |----|
口口口口 |①---|
39
②口口② |①---|
口③口口 |--②-|
口口④口 |--③-|
口⑤①口 |④-⑤-|
40
口口口口 |----|
口口口口 |----|
口口口口 |----|
口口口口 |----|
41
口口口口 |①---|
口口口口 |----|
口①①口 |----|
口口口口 |----|
42
②<口口 |①---|
口①①口 |----|
口口口口 |②---|
口口口口 |----|
43
①>―① |①---|
口口口口 |----|
口口口口
口口口口

②口口②
口③口口
口口口口 |----|
口口口口 |②---③-|
44
口口口口 |①---②-|
④口①口 |③---|
口②③口 |----|
口口口口 |④---|
45
①<口口 |①---|
口口口口 |----|
口口口口
口口口口

②口口②
口口口③
口口口口 |②---|
口口口口 |③---|
46
口口口口 |①---|
口④④口 |--②-|
②口口① |③---|
③<口口 |④---|
47
口口口口 |①---|
口口口口 |②---|
口②口口
①口>①

口口口口
∨口④口
③口口口 |③---|
口口口③ |④---|
48
口口口① |①---|
口口口② |②---|
①口口③ |③---|
口口口④ |④---|
49
②③①口 |①---|
口④口口 |--②-|
口⑤①< |----|
口口口口 |③④⑤-|
50
∨口口∨ |①---|
①口口① |----|
口口①口
口口口口

口口口口
②口口②
口⑤④③ |②-③-|
口②②口 |④-⑤-|
51
②②口口 |①---|
口③④口 |②---|
①口口口 |--③-|
口口口口 |--④-|
52
口②③④ |①---|
口口⑤口 |--②③|
口①口口 |④---|
口口口口 |⑤---|
53
口口口口 |①-②-|
④①口口 |③---|
口口②口 |--④-|
⑤③口口 |--⑤-|
54
口口口口 |①-②-|
―③口 |③---|
口②口口 |----|
口口①口 |----|
55
口①口口 |①---|
口口①口 |--②③|
④③②口 |④---|
口口口口 |----|
56
口①①口 |①---|
口②②口 |②---|
口③③口 |③---|
口④④口 |④---|
57
①口口① |①---|
口口口口 |--②③|
口②③④ |④---|
口⑥⑤口 |--⑤⑥|
58
②口口② |①---|
③口口③ |--②③|
④口口④ |④---|
①口口口 |----|
59
②③③② |①---|
④口口口 |②---|
④口口口 |--③-|
口①①口 |--④-|
60
口口口口 |①-②③|
口①②② |④---|
口①③③
口口④④

口口口口
口⑦口口
口⑥口口 |⑤---|
⑤口口口 |⑥-⑦-|
61
口④①口 |①--②|
①⑤②④ |--③-|
②⑥③⑤ |④--⑤|
③口口⑥ |--⑥-|
62
①<>① |①---|
口口口口 |----|
口口口口
口口口口

②口口②
口②②③
口口口④ |②---|
口口口口 |--③④|
63
口②口口 |①---|
口口口口 |②---|
口口口口
口>―①

③口口口
④口口口
口⑤口口 |③---|
口口口④ |④-⑤-|
64
口口口口 |①---|
口口②口 |②---|
口口口口
①<口口

口④口口
口口口口
口口>③ |③---|
③口口口 |④---|
65
口口②口 |①---|
①口口③ |②---|
|口④① |③---|
∧口口口 |④---|
66
口②口① |①---|
①③④| |②---|
口⑤⑥∧ |③-④-|
口口口口 |⑤-⑥-|
67
①口口① |①-②-|
②⑤口口 |③-④-|
③口⑥口 |--⑤-|
④⑦口口 |⑥-⑦-|
68
口口口口 |--①-|
⑤④③口 |②-③-|
口②口口 |--④-|
口口①口 |--⑤-|
69
①口口① |①-②-|
口口⑤② |③-④-|
口⑥口③ |--⑤-|
口口⑦④ |⑥-⑦-|
70
口口口口 |--①-|
口③④⑤ |②-③-|
口口②口 |--④-|
口①口口 |--⑤-|
71
口口口① |①-②-|
口口口口 |③-④-|
口口口口 |----|
①②③④ |----|
72
口口口口 |--①-|
①口③口 |②-③-|
口②④口 |--④-|
口口⑤口 |--⑤-|
73
①②③④ |①-②-|
口口口口 |③-④-|
口口口口 |----|
口口口① |----|
74
口口口口 |--①-|
口③口① |②-③-|
口④②口 |--④-|
口口口口 |----|
75
④③②① |①-②-|
|口口口 |③-④-|
|口口口 |----|
∧口口口 |----|
76
①口口口 |----|
口口口口 |----|
口口口口 |----|
口口口口 |--①-|
最終更新:2019年11月03日 02:16