アットウィキロゴ
Jazz is Rad
ARM(IOSYS)+Brasscapsule

BASIC

Level: 6
BPM: 160
Notes: 406

1
口口口口 |----|
口口口口 |----|
口口口口 |----|
口口口口 |----|
2
口口口口 |-①--|
口①①口 |②--③|
口②②口 |----|
口③③口 |----|
3
口口口口 |-①--|
①口口① |②--③|
②口口② |----|
③口口③ |----|
4
口①①口 |-①--|
口②②口 |②--③|
口③③口 |----|
口口口口 |----|
5
①口口① |-①--|
②口口② |②--③|
③口口③ |----|
口口口口 |----|
6
⑤口口⑤ |-①--|
口③③口 |②--③|
口②②口 |----|
④①①④ |④--⑤|
7
口①①口 |----|
③②②③ |①--②|
④口口④ |----|
口口口口 |③--④|
8
④口口④ |----|
口口口口 |①--②|
口①①口 |----|
③②②③ |③--④|
9
口口口口 |----|
口口口口 |----|
口口口口 |----|
口口口口 |----|
10
口口口口 |----|
口口口口 |----|
口口口口 |----|
口口口口 |----|
11
⑤口口口 |①-②-|
⑥口口口 |③-④⑤|
⑦口口口 |--⑥-|
①②③④ |-⑦--|
12
④③②① |①-②-|
口口口⑦ |③-④⑤|
口口口⑥ |--⑥-|
口口口⑤ |-⑦--|
13
⑤口口口 |①-②-|
⑥口口口 |③-④⑤|
⑦口口口 |--⑥-|
①②③④ |-⑦--|
14
②②①① |①---|
⑤③③⑤ |②---|
口④④口 |③--④|
口口口口 |--⑤-|
15
⑤口口口 |①-②-|
⑥口口口 |③-④⑤|
⑦口口口 |--⑥-|
①②③④ |-⑦--|
16
④③②① |①-②-|
口口口⑦ |③-④⑤|
口口口⑥ |--⑥-|
口口口⑤ |-⑦--|
17
口③③口 |①--②|
口口口口 |---③|
④②②④ |----|
口①①口 |④---|
18
①口口② |①--②|
①口口② |----|
口③③口 |③---|
口口口口 |----|
19
①口口口 |--①-|
⑤④③② |--②-|
口口⑥口 |③-④-|
口口口口 |⑤-⑥-|
20
口口口口 |①---|
口口口口 |②-③-|
口①口口 |----|
③口口② |----|
21
口④口⑤ |--①-|
口口③口 |-②--|
口②口口 |③--④|
口口①口 |--⑤-|
22
①口口口 |①---|
口口口口 |---②|
口口②口 |----|
口口口口 |----|
23
①口口口 |--①-|
口口口口 |--②-|
口口⑥口 |③-④-|
⑤④③② |⑤-⑥-|
24
口口口② |①---|
口③口口 |②--③|
口①口口 |----|
口口⑤④ |④-⑤-|
25
口口口口 |①---|
口口口口 |----|
②③口口 |----|
口①口口 |②-③-|
26
口口口口 |①---|
口口③② |----|
口口①口 |----|
口口口口 |②-③-|
27
②③口口 |①---|
口①口口 |----|
口口口口 |----|
口口口口 |②-③-|
28
口口①口 |①---|
口②②口 |---②|
口口口口 |----|
口口口口 |----|
29
口口口口 |----|
口口口口 |----|
口口口口 |----|
口口口口 |----|
30
口口口口 |----|
口口口口 |----|
口②口口 |①---|
①口口口 |②---|
31
②口口口 |①---|
口口①口 |----|
口口口口 |----|
口口口口 |②---|
32
口口①口 |①---|
口口②口 |②---|
口口口口 |----|
③口口口 |--③-|
33
口⑦⑧口 |①-②-|
口⑤⑥口 |③-④-|
口③④口 |⑤-⑥-|
口①②口 |⑦-⑧-|
34
①口口② |①-②-|
③口口④ |③-④-|
⑤口口⑥ |⑤-⑥-|
⑦口口⑧ |⑦-⑧-|
35
⑦口口口 |①-②-|
口③⑥⑧ |③-④-|
口②⑤口 |⑤-⑥-|
口①④口 |⑦-⑧-|
36
口③④口 |①-②-|
口⑤⑥口 |----|
①口口口 |③-④-|
口口口② |⑤-⑥-|
37
口口口口 |①-②-|
口口口口 |③-④-|
⑦①②⑧ |⑤-⑥-|
⑤③④⑥ |⑦-⑧-|
38
③⑤口④ |①-②-|
①口⑥② |③-④-|
口口口口 |⑤---|
口口口口 |⑥---|
39
口口口口 |①---|
口口口口 |----|
口①口③ |②---|
口口口② |③---|
40
口口口② |①---|
口口口① |②---|
口口口口 |----|
口口口口 |----|
41
①口②口 |--①-|
口③口口 |②-③-|
⑦口④口 |④-⑤-|
口⑤口⑥ |⑥-⑦-|
42
②口③口 |①-②-|
口④口① |③-④-|
口⑧⑤口 |⑤-⑥-|
口⑥⑦口 |⑦-⑧-|
43
口口口口 |①---|
口口①口 |----|
口口口口 |②-③-|
②③④⑤ |④-⑤-|
44
口③口④ |①-②-|
口口②口 |③---|
口①口口 |----|
口口口口 |④---|
45
口口口口 |①-②-|
⑤①②⑥ |③-④-|
⑦③④⑧ |⑤-⑥-|
口口口口 |⑦-⑧-|
46
⑤①②⑥ |①-②-|
口口口口 |③-④-|
口口口口 |⑤-⑥-|
⑦③④⑧ |⑦-⑧-|
47
口口②口 |①---|
口①口口 |----|
口口口口 |②---|
口口口口 |----|
48
口口口口 |①---|
口口③口 |②---|
口口口② |③---|
口口①口 |----|
49
①口口口 |①---|
②口口口 |②---|
③口口口 |③---|
④口口口 |④---|
50
口口②口 |①---|
口③口口 |----|
口①口口 |②---|
口口口口 |③---|
51
④口口口 |①---|
口口口口 |②---|
口口①口 |③---|
口②口③ |④---|
52
口①②③ |①---|
口口口口 |②---|
口④口口 |③---|
口口口口 |④---|
53
①口口口 |----|
口口口② |①---|
③口口口 |②---|
口口口口 |③---|
54
口口口口 |①---|
口③口口 |----|
口②口口 |②---|
口口口① |③---|
55
口①②口 |①-②-|
③口口④ |③-④-|
⑤口口⑥ |⑤-⑥-|
口⑦⑧口 |⑦-⑧-|
56
①口口② |①-②-|
口③④口 |③-④-|
口⑤⑥口 |⑤-⑥-|
⑦口口⑧ |⑦-⑧-|
57
口⑦⑧口 |①-②-|
口⑤⑥口 |③-④-|
口③④口 |⑤-⑥-|
口①②口 |⑦-⑧-|
58
⑦口口⑧ |①-②-|
⑤口口⑥ |③-④-|
③口口④ |⑤-⑥-|
①口口② |⑦-⑧-|
59
口口口口 |----|
口①②口 |①-②-|
口③④口 |③-④-|
口⑤⑥口 |⑤-⑥-|
60
⑦口口口 |①-②-|
⑤口口⑥ |③-④-|
③口口④ |⑤-⑥-|
①口口② |⑦---|
61
口口口① |--①-|
口②口口 |----|
口口口口 |②---|
口口口口 |----|
62
口口口口 |①---|
口口口口 |----|
口口①口 |②---|
口口口② |----|
63
口口口口 |①---|
口①①口 |--②-|
口②②口 |----|
口口口口 |----|
64
⑤口口口 |①-②-|
⑥口口口 |③-④⑤|
⑦口口口 |--⑥-|
①②③④ |-⑦--|
65
④③②① |①-②-|
口口口⑦ |③-④⑤|
口口口⑥ |--⑥-|
口口口⑤ |-⑦--|
66
⑤口口口 |①-②-|
⑥口口口 |③-④⑤|
⑦口口口 |--⑥-|
①②③④ |-⑦--|
67
②②①① |①---|
⑤③③⑤ |②---|
口④④口 |③--④|
口口口口 |--⑤-|
68
⑤口口口 |①-②-|
⑥口口口 |③-④⑤|
⑦口口口 |--⑥-|
①②③④ |-⑦--|
69
④③②① |①-②-|
口口口⑦ |③-④⑤|
口口口⑥ |--⑥-|
口口口⑤ |-⑦--|
70
口③③口 |①--②|
口口口口 |---③|
④②②④ |----|
口①①口 |④---|
71
①口口② |①---|
①口口② |----|
口口口口 |②---|
口口口口 |----|
72
口口口口 |①---|
口口口口 |----|
①口口② |②---|
①口口② |----|
73
①⑤⑥② |①--②|
①⑤⑥② |--③-|
③口口④ |-④--|
③口口④ |⑤--⑥|
74
口口口口 |--①-|
③口口口 |-②--|
③①②口 |③---|
口①②口 |----|
75
①口口① |----|
①口口① |①---|
口口口口 |----|
口口口口 |----|
76
口口口口 |----|
口口口口 |----|
口口口口 |----|
口口口口 |----|
77
口口口口 |----|
口口口口 |----|
口口口口 |----|
口口口口 |----|
78
口口口口 |----|
口口口口 |----|
口口口口 |----|
口口口口 |----|

accuracy: 100%
最終更新:2022年04月21日 02:14