アットウィキロゴ
Blue Sky
Sota F.

EXTREME

Level: 4
BPM: 142
Notes: 320

1
口口口口 |----|
口口口口 |----|
口口口口 |----|
口口口口 |----|
2
④口口① |①---|
③口口口 |②---|
②口口口 |③---|
①口口口 |④---|
3
口口口④ |①---|
口口口③ |②---|
口口口② |③---|
口④口① |④---|
4
④口口口 |①---|
③口④口 |②---|
②口口口 |③---|
①口口口 |④---|
5
口口口④ |①---|
口④口③ |②---|
口口口② |③---|
口口口① |④---|
6
④口④口 |①---|
③口口口 |②---|
②口口口 |③---|
①口口口 |④---|
7
口口口④ |①---|
口口口③ |②---|
口④口② |③---|
口口口① |④---|
8
④口口口 |①---|
③口口口 |②---|
②口④口 |③---|
①口口口 |④---|
9
②口口② |①---|
口①①口 |----|
口口口口 |----|
口口口口 |②---|
10
口口口口 |①---|
口①口口 |②---|
口③④⑤ |③-④-|
口口②口 |⑤---|
11
口口口口 |①---|
口口①口 |②---|
⑤④③口 |③-④-|
口②口口 |⑤---|
12
口口口口 |①---|
①口口口 |②---|
口③④⑤ |③-④-|
口口口② |⑤---|
13
口口口口 |①---|
口口口① |②---|
⑤④③口 |③-④-|
②口口口 |⑤---|
14
口口口口 |①---|
口①口口 |②---|
口③④⑤ |③-④-|
口口②口 |⑤---|
15
口口口口 |①---|
口口①口 |②---|
⑤④③口 |③-④-|
口②口口 |⑤---|
16
口口口口 |①---|
①口口口 |②---|
口③④⑤ |③-④-|
口口口② |⑤---|
17
②口口② |①---|
口①①口 |----|
口口口口 |②---|
③口口③ |③---|
18
口口口口 |①---|
口口②② |----|
口①①口 |②---|
口口③③ |③---|
19
口口口口 |①---|
②②口口 |----|
口①①口 |②---|
③③口口 |③---|
20
口口口口 |①---|
口口②② |----|
口①①口 |②---|
口口③③ |③---|
21
口口口口 |①---|
②②口口 |----|
口①①口 |②---|
③③口口 |③---|
22
口口②② |①---|
口口口口 |----|
口①①口 |②---|
口口③③ |③---|
23
②②口口 |①---|
口口口口 |----|
口①①口 |②---|
③③口口 |③---|
24
口口②② |①---|
口口口口 |----|
口①①口 |②---|
口口③③ |③---|
25
口口口口 |①---|
口口口口 |----|
口①①口
口口口口

②口口②
口口口口
口④④口 |②--③|
口③③口 |--④-|
26
口③④口 |①--②|
①口口② |--③-|
口口口口 |④---|
口口口口 |----|
27
口口口口 |①--②|
口口口口 |--③-|
①口口② |④---|
口③④口 |----|
28
口口口口 |①--②|
口口口口 |--③-|
口③④口 |④---|
①口口② |----|
29
①口口② |①--②|
口③④口 |--③-|
口口口口 |④---|
口口口口 |----|
30
口③④口 |①--②|
①口口② |--③-|
口口口口 |④---|
口口口口 |----|
31
口口口口 |①--②|
口口口口 |--③-|
①口口② |④---|
口③④口 |----|
32
口口口口 |①--②|
口口口口 |--③-|
口③④口 |④---|
①口口② |----|
33
①口口② |①--②|
口③④口 |--③-|
口口口口 |④---|
口口口口 |----|
34
④③②① |①---|
口口口口 |②---|
口口口口 |③---|
口口口口 |④---|
35
口口口口 |①---|
口②②口 |----|
口①①口 |②---|
口口口口 |----|
36
口口口口 |①---|
口口口口 |②---|
口口口口 |③---|
④③②① |④---|
37
口口口口 |①---|
口②②口 |----|
口①①口 |②---|
口口口口 |----|
38
①②③④ |①---|
口口口口 |②---|
口口口口 |③---|
口口口口 |④---|
39
口口口口 |①---|
口②②口 |----|
口①①口 |②---|
口口口口 |----|
40
口口口口 |①---|
口口口口 |②---|
口口口口 |③---|
①②③④ |④---|
41
③口口③ |①---|
口口口口 |----|
②①①② |②---|
口口口口 |③---|
42
口口口口 |①---|
①①口③ |----|
口口口② |②---|
口口口口 |③---|
43
口口口口 |①---|
口口③口 |----|
①①②口 |②---|
口口口口 |③---|
44
口口口③ |①---|
①①口口 |----|
口口口口 |②---|
口口口② |③---|
45
口口③口 |①---|
口口口口 |----|
①①口口 |②---|
口口②口 |③---|
46
口口口口 |①---|
①①口③ |----|
口口口② |②---|
口口口口 |③---|
47
口口口口 |①---|
口口③口 |----|
①①②口 |②---|
口口口口 |③---|
48
口口口③ |①---|
①①口口 |----|
口口口口 |②---|
口口口② |③---|
49
口口③口 |①---|
口口口口 |----|
①①口口 |②---|
口口②口 |③---|
50
口口口口 |①---|
口①②口 |②---|
口③④口 |③---|
口口口口 |④---|
51
①口口② |①---|
口口口口 |②---|
口口口口 |③---|
③口口④ |④---|
52
口①②口 |①---|
口口口口 |②---|
口口口口 |③---|
口③④口 |④---|
53
口口口口 |①---|
①口口② |②---|
③口口④ |③---|
口口口口 |④---|
54
口口口口 |①---|
口①②口 |②---|
口③④口 |③---|
口口口口 |④---|
55
①口口② |①---|
口口口口 |②---|
口口口口 |③---|
③口口④ |④---|
56
口①②口 |①---|
口口口口 |②---|
口口口口 |③---|
口③④口 |④---|
57
③口口③ |①---|
口①①口 |----|
口口口口 |②---|
口②②口 |③---|
58
口口口口 |①---|
口①②口 |----|
口①②口 |②---|
口口口口 |----|
59
①③③① |①---|
口口口口 |----|
口口口口 |②---|
口②②口 |③---|
60
口口口口 |①---|
③④②① |②---|
③④②① |③---|
口口口口 |④---|
61
④④④④ |①---|
③口口③ |②---|
②口口② |③---|
①口口① |④---|
62
口口口口 |①---|
口②①口 |----|
口②①口 |②---|
口口口口 |----|
63
③①①③ |①---|
口口口口 |②---|
口口口口 |③---|
④②②④ |④---|
64
②②③③ |①---|
④④①① |②---|
口口口口 |③---|
口口口口 |④---|
65
④④④④ |①---|
③口口③ |②---|
②口口② |③---|
①口口① |④---|

accuracy: 100%
最終更新:2022年03月26日 03:30