アットウィキロゴ
Wandering Gravity
Nazzo-Non-Heat

BASIC

Level: 4
BPM: 170
Notes: 327

1
口口口口 |----|
口口口口 |----|
口口口口 |----|
口口口口 |----|
2
①口口② |①---|
口④口口 |②---|
口③口口 |③---|
口口口口 |--④-|
3
口口口口 |----|
口口②口 |①---|
口口①口 |--②-|
口口口口 |----|
4
①口口② |①---|
口④口口 |②---|
口③口口 |③---|
口口口口 |--④-|
5
口口口口 |----|
口口②口 |①---|
口口①口 |--②-|
口口口口 |----|
6
①口口② |①---|
口④口口 |②---|
口③口口 |③---|
口口口口 |--④-|
7
口口口口 |----|
口口②口 |①---|
口口①口 |--②-|
口口口口 |----|
8
口口口口 |①---|
口③③口 |--②-|
口②②口 |----|
口①①口 |③---|
9
口①①口 |--①-|
口口口口 |----|
②口口② |②---|
口口口口 |----|
10
①口口② |①---|
口④口口 |②---|
口③口口 |③---|
口口口口 |--④-|
11
口口口口 |----|
口口②口 |①---|
口口①口 |--②-|
口口口口 |----|
12
①口口② |①---|
口④口口 |②---|
口③口口 |③---|
口口口口 |--④-|
13
口口口口 |----|
口口②口 |①---|
口口①口 |--②-|
口口口口 |----|
14
①口口② |①---|
口④口口 |②---|
口③口口 |③---|
口口口口 |--④-|
15
口口口口 |----|
口口②口 |①---|
口口①口 |--②-|
口口口口 |----|
16
口口口口 |①---|
口③③口 |--②-|
口②②口 |----|
口①①口 |③---|
17
口①①口 |--①-|
口口口口 |----|
口口口口 |----|
口口口口 |----|
18
口口口口 |----|
口口口口 |----|
口口口口 |----|
口口口口 |----|
19
①口口① |①---|
口②②口 |--②-|
口③③口 |--③-|
口④④口 |--④-|
20
口口口口 |----|
①口口② |--①-|
口口口口 |--②-|
口口口口 |----|
21
口口口口 |①---|
口②②口 |--②-|
口③③口 |--③-|
①④④① |--④-|
22
口口口口 |----|
口口口口 |--①-|
①口口② |--②-|
口口口口 |----|
23
①口口① |①---|
口②②口 |--②-|
口③③口 |--③-|
口④④口 |--④-|
24
口口口口 |----|
①口口② |--①-|
口口口口 |--②-|
口口口口 |----|
25
②口口② |①---|
口口口口 |--②-|
口口口口 |----|
③①①③ |③---|
26
口①①口 |--①-|
口口口口 |----|
口口口口 |--②-|
口②口口 |----|
27
口口③③ |①---|
口口口口 |--②-|
②②①① |----|
口口口口 |③---|
28
①①口口 |--①-|
口口②口 |----|
口③口口 |②---|
口口口口 |③---|
29
口口口口 |①---|
口口③③ |--②-|
口口口口 |----|
②②①① |③---|
30
③口口② |①---|
口①④口 |②---|
口口口口 |③---|
口口口口 |④---|
31
③③口口 |①---|
口口口口 |--②-|
①①②② |----|
口口口口 |③---|
32
口口①① |--①-|
口②口口 |----|
口口③口 |②---|
口口口口 |③---|
33
②②③③ |①---|
口口口口 |--②-|
口口口口 |----|
①①口口 |③---|
34
口口②口 |--①-|
口口口口 |----|
口口口口 |----|
口口①① |②---|
35
①口口② |①---|
③④口口 |②---|
口口口口 |③---|
口口口口 |④---|
36
口口口口 |①---|
③口口口 |②---|
②①口口 |③---|
口口口口 |----|
37
②口口① |①---|
口口④③ |②---|
口口口口 |③---|
口口口口 |④---|
38
口口口口 |①---|
口口口③ |②---|
口口①② |③---|
口口口口 |----|
39
①口口② |①---|
③④口口 |②---|
口口口口 |③---|
口口口口 |④---|
40
口口口口 |①---|
③口口口 |②---|
②①口口 |③---|
口口口口 |----|
41
②口口① |①---|
口口④③ |②---|
口口口口 |③---|
口口口口 |④---|
42
口口口口 |①---|
口口口③ |②---|
口口①② |③---|
口口口口 |----|
43
口口口④ |①---|
③口口口 |②---|
口口口② |③---|
①口口口 |④---|
44
①口口口 |①---|
口口口② |②---|
③口口口 |③---|
口口口④ |④---|
45
②②口口 |①---|
口口口口 |--②-|
口①口口 |----|
口口口口 |----|
46
口口②② |①---|
口口口口 |--②-|
口口①口 |----|
口口口口 |----|
47
①口口口 |①---|
口口口② |②---|
③口口口 |③---|
口口口④ |④---|
48
口口口④ |①---|
③口口口 |②---|
口口口② |③---|
①口口口 |④---|
49
②②口口 |①---|
口口口口 |--②-|
口①口口 |----|
口口口口 |----|
50
口口②② |①---|
口口口口 |--②-|
口口①口 |----|
口口口口 |----|
51
口口口④ |①---|
③口口口 |②---|
口口口② |③---|
①口口口 |④---|
52
①口口口 |①---|
口口口② |②---|
③口口口 |③---|
口口口④ |④---|
53
②②口口 |①---|
口口口口 |--②-|
口①口口 |----|
口口口口 |----|
54
口口②② |①---|
口口口口 |--②-|
口口①口 |----|
口口口口 |----|
55
①口口② |①---|
①口口② |--②-|
③口口口 |----|
③口口口 |③---|
56
口口口口 |--①-|
口②②口 |----|
口口口① |②---|
口口口① |----|
57
②口口① |①---|
②口口① |--②-|
口口口③ |----|
口口口③ |③---|
58
口口口口 |--①-|
口口口口 |----|
①②②口 |②---|
①口口口 |----|
59
②口口② |①---|
口口口口 |--②-|
口③③口 |----|
①口口① |③---|
60
口②②口 |----|
口口口口 |----|
口口口口 |①---|
口①①口 |--②-|
61
口口口口 |----|
口口口口 |①---|
①口口① |----|
口口口口 |----|
62
②口口② |①---|
口口口口 |--②-|
口口口口 |----|
①③③① |③---|
63
口口口口 |①---|
口①①口 |----|
口口口口 |----|
口口口口 |----|
64
①口口① |①---|
口口口口 |----|
口口口口 |----|
口口口口 |----|
65
口口口口 |①---|
口口口口 |----|
①口口① |----|
口口口口 |----|
66
口口口口 |----|
口口口口 |----|
口口口口 |----|
口口口口 |----|
67
口口口口 |----|
口口口口 |----|
口口口口 |----|
口口口口 |----|
68
口口口口 |----|
口口口口 |----|
口口口口 |----|
口口口口 |----|
69
①口口① |①---|
口②②口 |--②-|
口③③口 |--③-|
口④④口 |--④-|
70
口口口口 |----|
①口口② |--①-|
口口口口 |--②-|
口口口口 |----|
71
口口口口 |①---|
口②②口 |--②-|
口③③口 |--③-|
①④④① |--④-|
72
口口口口 |----|
口口口口 |--①-|
①口口② |--②-|
口口口口 |----|
73
①口口① |①---|
口②②口 |--②-|
口③③口 |--③-|
口④④口 |--④-|
74
口口口口 |----|
①口口② |--①-|
口口口口 |--②-|
口口口口 |----|
75
②口口② |①---|
口口口口 |--②-|
口口口口 |----|
③①①③ |③---|
76
口①①口 |--①-|
口口口口 |----|
口口口口 |--②-|
口②口口 |----|
77
口口③③ |①---|
口口口口 |--②-|
②②①① |----|
口口口口 |③---|
78
①①口口 |--①-|
口口②口 |----|
口③口口 |②---|
口口口口 |③---|
79
口口口口 |①---|
口口③③ |--②-|
口口口口 |----|
②②①① |③---|
80
③口口② |①---|
口①④口 |②---|
口口口口 |③---|
口口口口 |④---|
81
③③口口 |①---|
口口口口 |--②-|
①①②② |----|
口口口口 |③---|
82
口口①① |--①-|
口②口口 |----|
口口③口 |②---|
口口口口 |③---|
83
②②③③ |①---|
口口口口 |--②-|
口口口口 |----|
①①口口 |③---|
84
口口口口 |--①-|
口②③口 |----|
口②③口 |--②-|
口口①① |--③-|

accuracy: 100%
最終更新:2022年05月12日 11:25