アットウィキロゴ
Don't Break Me Down
A-One

BASIC

Level: 3
BPM: 163
Notes: 206

1
口口口口 |----|
口口口口 |----|
口口口口 |----|
口口口口 |----|
2
口口口口 |①---|
口口口② |----|
口①①口 |----|
口口口口 |②---|
3
口口口口 |①---|
②口口口 |----|
口①①口 |----|
口口口口 |②---|
4
口口口口 |①---|
口口口② |----|
口①①口 |----|
口口口口 |②---|
5
口口口口 |①---|
②口口口 |----|
口①①口 |----|
口口口口 |②---|
6
口口口② |①---|
口口口口 |----|
口①①口 |----|
口口口口 |②---|
7
②口口口 |①---|
口口口口 |----|
口①①口 |----|
口口口口 |②---|
8
口口口② |①---|
口口口口 |----|
口①①口 |----|
口口口口 |②---|
9
②口口口 |①---|
口口口口 |----|
口①①口 |----|
口口口口 |②---|
10
口口②口 |①---|
口口口口 |----|
口①①口 |----|
口口口口 |②---|
11
口②口口 |①---|
口口口口 |----|
口①①口 |----|
口口口口 |②---|
12
口口口口 |①---|
口口口② |----|
口①①口 |----|
口口口口 |②---|
13
口口口口 |①---|
②口口口 |----|
口①①口 |----|
口口口口 |②---|
14
口口③口 |①---|
口口口① |②---|
口口②口 |----|
口口口口 |③---|
15
口③口口 |①---|
①口口口 |②---|
口②口口 |----|
口口口口 |③---|
16
口口③口 |①---|
口口口① |②---|
口口②口 |----|
口口口口 |③---|
17
口③口口 |①---|
①口口口 |②---|
口②口口 |----|
口口口口 |③---|
18
口口口口 |①---|
口口③口 |②---|
口口口① |----|
口口②口 |③---|
19
口口口口 |①---|
口③口口 |②---|
①口口口 |----|
口②口口 |③---|
20
口口口口 |①---|
②口口① |②---|
④口口③ |③---|
口口口口 |④---|
21
口口口口 |①---|
②口口② |----|
口①①口 |②---|
口口口口 |----|
22
口口口① |①---|
口口②口 |----|
口口口口 |②---|
口口口口 |----|
23
口②③口 |①---|
口口口口 |----|
口①口口 |②---|
口口口口 |③---|
24
①口口口 |①---|
口②口口 |----|
口口口口 |②---|
口口口口 |----|
25
口③②口 |①---|
口口口口 |----|
口口①口 |②---|
口口口口 |③---|
26
口口口① |①---|
口口②口 |----|
口口口口 |②---|
口口口口 |----|
27
口②③口 |①---|
口口口口 |----|
口①口口 |②---|
口口口口 |③---|
28
①口口口 |①---|
口②口口 |----|
口口口口 |②---|
口口口口 |----|
29
口③②口 |①---|
口口口口 |----|
口口①口 |②---|
口口口口 |③---|
30
②口口① |①---|
口口口口 |----|
口口口口 |②---|
口口口口 |----|
31
口口口口 |①---|
②口口① |----|
口口口口 |②---|
口口口口 |----|
32
口口口口 |①---|
口口口口 |----|
②口口① |②---|
口口口口 |----|
33
口口口口 |①---|
口口口口 |②---|
口口口口 |③---|
④③②① |④---|
34
①口口② |①---|
口口口口 |----|
口口口口 |②---|
口口口口 |----|
35
口口口口 |①---|
①口口② |----|
口口口口 |②---|
口口口口 |----|
36
口口口口 |①---|
口口口口 |----|
①口口② |②---|
口口口口 |----|
37
口口口口 |①---|
口口口口 |②---|
口口口口 |③---|
①②③④ |④---|
38
口口口口 |①---|
②口口① |----|
口口口口 |②---|
口口口口 |----|
39
口口口口 |①---|
口口口口 |----|
口②①口 |②---|
口口口口 |----|
40
口口口口 |①---|
②口口① |----|
口口口口 |②---|
口口口口 |----|
41
口口口口 |①---|
口口口口 |----|
口①①口 |----|
口口口口 |----|
42
口口口口 |①---|
①口口② |----|
口口口口 |②---|
口口口口 |----|
43
口口口口 |①---|
口口口口 |----|
口①②口 |②---|
口口口口 |----|
44
口口口口 |①---|
①口口② |----|
口口口口 |②---|
口口口口 |----|
45
口②②口 |①---|
口口口口 |----|
口①①口 |②---|
口口口口 |----|
46
口口口口 |①---|
④③②① |②---|
口口口口 |③---|
口口口口 |④---|
47
口口口口 |①---|
口口口口 |②---|
④③②① |③---|
口口口口 |④---|
48
口口①口 |①---|
口②口口 |②---|
口口③口 |③---|
口④口口 |④---|
49
口口口① |①---|
口口②口 |②---|
口③口口 |③---|
口口口口 |----|
50
口口口口 |①---|
①②③④ |②---|
口口口口 |③---|
口口口口 |④---|
51
口口口口 |①---|
口口口口 |②---|
①②③④ |③---|
口口口口 |④---|
52
口①口口 |①---|
口口②口 |②---|
口③口口 |③---|
口口④口 |④---|
53
口口口口 |①---|
①口口① |----|
口口口口 |----|
口口口口 |----|
54
口口口口 |①---|
①②③④ |②---|
口口口口 |③---|
口口口口 |④---|
55
口口口口 |①---|
口口口口 |②---|
①②③④ |③---|
口口口口 |④---|
56
口①口口 |①---|
口口②口 |②---|
口③口口 |③---|
口口④口 |④---|
57
①口口口 |①---|
口②口口 |②---|
口口③口 |③---|
口口口口 |----|
58
口口口口 |①---|
④③②① |②---|
口口口口 |③---|
口口口口 |④---|
59
口口口口 |①---|
口口口口 |②---|
④③②① |③---|
口口口口 |④---|
60
口口①口 |①---|
口②口口 |②---|
口口③口 |③---|
口④口口 |④---|
61
口口口口 |①---|
①口口① |----|
口口口口 |----|
口口口口 |----|
62
口口口口 |①---|
口②②口 |----|
口口口口 |--②-|
口①①口 |----|
63
口口口① |①---|
口口②口 |----|
口口口口 |②---|
口口口口 |----|
64
口②③口 |①---|
口口口口 |----|
口①口口 |②---|
口口口口 |③---|
65
①口口口 |①---|
口②口口 |----|
口口口口 |②---|
口口口口 |----|
66
口③②口 |①---|
口口口口 |----|
口口①口 |②---|
口口口口 |③---|
67
口口口① |①---|
口口②口 |----|
口口口口 |②---|
口口口口 |----|
68
口②③口 |①---|
口口口口 |----|
口①口口 |②---|
口口口口 |③---|
69
①口口口 |①---|
口②口口 |----|
口口口口 |②---|
口口口口 |----|
70
口口口口 |①---|
③口口③ |----|
②口①② |②---|
口口口口 |③---|
71
①口口① |①---|
口口口口 |----|
口口口口 |----|
口口口口 |----|

accuracy: 99.5%
最終更新:2022年09月21日 03:11