アットウィキロゴ
Don't Break Me Down
A-One

ADVANCED

Level: 7
BPM: 163
Notes: 425

1
口口口口 |----|
口口口口 |----|
口口口口 |----|
口口口口 |----|
2
口口①口 |①--②|
口口口口 |--③-|
②④④口 |----|
口口口③ |④---|
3
口①口口 |①--②|
口④④口 |--③-|
口口口② |----|
③口口口 |④---|
4
口口①口 |①--②|
口口口口 |--③-|
②④④口 |----|
口口口③ |④---|
5
口①口口 |①--②|
口④④口 |--③-|
口口口② |----|
③口口口 |④---|
6
口口④① |①---|
②口口① |②---|
②④口③ |③---|
口口口③ |④---|
7
①④口口 |①---|
①口口② |②---|
③口④② |③---|
③口口口 |④---|
8
口口④① |①---|
②口口① |②---|
②④口③ |③---|
口口口③ |④---|
9
①④口口 |①---|
①口口② |②---|
③口④② |③---|
③口口口 |④---|
10
口口④口 |①---|
②③口① |②---|
②口③① |③---|
口④口口 |④---|
11
口④口口 |①---|
①口③② |②---|
①③口② |③---|
口口④口 |④---|
12
口口④口 |①---|
②③口① |②---|
②口③① |③---|
口④口口 |④---|
13
口④口口 |①---|
①口③② |②---|
①③口② |③---|
口口④口 |④---|
14
⑤⑤口口 |①--②|
⑤③口① |--③-|
口口口④ |-④--|
②口口口 |⑤---|
15
口口口① |①--②|
口口口口 |--③-|
口口口③
口②口口

口口⑤⑤
口口口⑤
④口口口 |-④--|
口口口口 |⑤---|
16
口口⑤⑤ |①--②|
①口③⑤ |--③-|
④口口口 |-④--|
口口口② |⑤---|
17
①口口口 |①--②|
口口口口 |--③-|
③口口口
口口②口

⑤⑤口口
⑤口口口
口口口④ |-④--|
口口口口 |⑤---|
18
⑤⑤口口 |①--②|
⑤③口① |--③-|
口口口④ |-④--|
②口口口 |⑤---|
19
口口口① |①--②|
口口口口 |--③-|
口口口③
口②口口

口口⑤⑤
口口口⑤
④口口口 |-④--|
口口口口 |⑤---|
20
口口⑤⑤ |①--②|
①口③⑤ |--③-|
④口口口 |-④--|
口口口② |⑤---|
21
④口口④ |①--②|
口③③口 |--③-|
口②②口 |④---|
口①①口 |----|
22
口口①口 |①---|
②口口① |②---|
②口口③ |③---|
口口③口 |----|
23
口口口口 |①---|
②④口① |②---|
口口③口 |③---|
口口口口 |④---|
24
口①口口 |①---|
①口口② |②---|
③口口② |③---|
口③口口 |----|
25
口口口口 |①---|
①口④② |②---|
口③口口 |③---|
口口口口 |④---|
26
口口①① |①---|
②口口口 |②---|
②口口口 |③---|
口口③③ |----|
27
口口口口 |①---|
②④口① |②---|
口口③口 |③---|
口口口口 |④---|
28
①①口口 |①---|
口口口② |②---|
口口口② |③---|
③③口口 |----|
29
口口口口 |①---|
②③③② |--②-|
口④④口 |--③-|
口口①① |④---|
30
口口口口 |----|
②口口① |①-②-|
④口口③ |③-④-|
口口口口 |----|
31
口口口⑤ |----|
口②①口 |①-②-|
口④③口 |③-④-|
口口口口 |--⑤-|
32
口口口口 |----|
①口口口 |①---|
口②口口 |②---|
口口③口 |③---|
33
口口⑤⑥ |①-②-|
③口口④ |③-④-|
①口口② |--⑤-|
口口口口 |⑥---|
34
口口口口 |①---|
②口口③ |②-③-|
④①①⑤ |④-⑤-|
口口口口 |----|
35
⑤口口口 |----|
口①②口 |①-②-|
口③④口 |③-④-|
口口口口 |--⑤-|
36
口口口口 |----|
口口口① |①---|
口口②口 |②---|
口③口口 |③---|
37
⑥⑤口口 |①-②-|
④口口③ |③-④-|
②口口① |--⑤-|
口口口口 |⑥---|
38
口④口口 |①-②-|
口口③⑤ |③-④-|
⑦②口⑥ |--⑤-|
口口①口 |⑥-⑦-|
39
口口①① |----|
口口口口 |①---|
口口②② |②---|
口口口口 |----|
40
口口口口 |①-②-|
口口口口 |③-④-|
①②③④
口口口口

口口⑤口
口⑥口口
⑦口口口 |--⑤-|
口口口口 |⑥-⑦-|
41
口口口口 |----|
口口口口 |----|
口口口口 |----|
口口口口 |----|
42
口口④口 |①-②-|
⑤③口口 |③-④-|
⑥口②⑦ |--⑤-|
口①口口 |⑥-⑦-|
43
①①口口 |----|
口口口口 |①---|
②②口口 |②---|
口口口口 |----|
44
口⑥③口 |①--②|
②口口⑤ |--③-|
口口口口 |④--⑤|
口④①口 |--⑥-|
45
口口③口 |①--②|
②④④口 |--③-|
口④④口 |④---|
口口①口 |----|
46
④口口② |①---|
口口口口 |②---|
③口口① |③---|
口口口口 |④---|
47
口②①口 |①---|
②口口① |②---|
口④③口 |③---|
④口口③ |④---|
48
①口口④ |①-②-|
口②③口 |③-④-|
⑤口口⑥ |⑤---|
⑤口口⑥ |⑥---|
49
口口口口 |①---|
口①①① |②---|
②②②口 |③---|
口③③③ |----|
50
②口口④ |①---|
口口口口 |②---|
①口口③ |③---|
口口口口 |④---|
51
③口口④ |①---|
口③④口 |②---|
①口口② |③---|
口①②口 |④---|
52
口④③口 |①-②-|
口口口口 |③-④-|
⑥②①⑤ |⑤---|
⑥口口⑤ |⑥---|
53
口口口口 |①---|
口①①口 |----|
口①①口 |----|
口口口口 |----|
54
②口口④ |①---|
口口口口 |②---|
①口口③ |③---|
口口口口 |④---|
55
口①②口 |①---|
①口口② |②---|
口③④口 |③---|
③口口④ |④---|
56
④口口① |①-②-|
口③②口 |③-④-|
⑥口口⑤ |⑤---|
⑥口口⑤ |⑥---|
57
口口口口 |①---|
①①①口 |②---|
口②②② |③---|
③③③口 |----|
58
④口口② |①---|
口口口口 |②---|
③口口① |③---|
口口口口 |④---|
59
④口口③ |①---|
口④③口 |②---|
②口口① |③---|
口②①口 |④---|
60
口③④口 |①-②-|
口口口口 |③-④-|
⑤①②⑥ |⑤---|
⑤口口⑥ |⑥---|
61
口口口口 |①---|
口①①口 |----|
口①①口 |----|
口口口口 |----|
62
口口口口 |①-②-|
①③③① |--③-|
②④④② |--④-|
口口口口 |----|
63
口口①口 |①---|
②口口① |②---|
②口口③ |③---|
口口③口 |----|
64
口口口口 |①---|
②④口① |②---|
口口③口 |③---|
口口口口 |④---|
65
口①口口 |①---|
①口口② |②---|
③口口② |③---|
口③口口 |----|
66
口口口口 |①---|
①口④② |②---|
口③口口 |③---|
口口口口 |④---|
67
口口①① |①---|
②口口口 |②---|
②口口口 |③---|
口口③③ |----|
68
口口口口 |①---|
②④口① |②---|
口口③口 |③---|
口口口口 |④---|
69
①①口口 |①---|
口口口② |②---|
口口口② |③---|
③③口口 |----|
70
③口口③ |①---|
口口②口 |②---|
口①口口 |③---|
④口口④ |④---|
71
口口口口 |①---|
口①①口 |----|
口①①口 |----|
口口口口 |----|

accuracy: 99.5%
最終更新:2022年09月21日 03:11