アットウィキロゴ
Musical Messenger
九州男

BASIC

Level: 3
BPM: 130
Notes: 226

1
口口口口 |----|
口口口口 |----|
口口口口 |----|
口口口口 |----|
2
①②口口 |①---|
口口口口 |----|
口口口口 |②---|
口口口口 |----|
3
口口①② |①---|
口口口口 |----|
口口口口 |②---|
口口口口 |----|
4
口口口口 |①---|
口②①口 |----|
口口口口 |②---|
口口口口 |----|
5
口口口口 |①---|
口②②口 |----|
口①①口 |②---|
口口口口 |----|
6
①②口口 |①---|
口口口口 |----|
口口口口 |②---|
口口口口 |----|
7
口口①② |①---|
口口口口 |----|
口口口口 |②---|
口口口口 |----|
8
口口口口 |①---|
口②①口 |----|
口口口口 |②---|
口口口口 |----|
9
口口口口 |①---|
口②②口 |----|
口①①口 |②---|
口口口口 |----|
10
①②③④ |①---|
口口口口 |②---|
口口口口 |③---|
口口口口 |④---|
11
口口口口 |①---|
④③②① |②---|
口口口口 |③---|
口口口口 |④---|
12
口口口口 |①---|
口口口口 |----|
口①②口 |②---|
口口口口 |----|
13
口口口口 |①---|
口口口口 |----|
口②②口 |②---|
口①①口 |----|
14
口口口口 |①---|
①②③④ |②---|
口口口口 |③---|
口口口口 |④---|
15
口④④口 |①---|
口③③口 |②---|
口②①口 |③---|
口口口口 |④---|
16
口口口口 |①---|
④③②① |②---|
口口口口 |③---|
口口口口 |④---|
17
口口口口 |①---|
口②②口 |----|
口①①口 |②---|
口口口口 |----|
18
①②③④ |①---|
口口口口 |②---|
口口口口 |③---|
口口口口 |④---|
19
口口口口 |①---|
口②①口 |②---|
口④④口 |③---|
口③③口 |④---|
20
口口口口 |①---|
④③②① |②---|
口口口口 |③---|
口口口口 |④---|
21
口口口口 |①---|
口②②口 |----|
口①①口 |②---|
口口口口 |----|
22
口口口口 |①---|
口③④口 |②---|
口①②口 |③---|
口口口口 |④---|
23
口口口口 |①---|
口③④口 |②---|
口①②口 |③---|
口口口口 |④---|
24
④③②① |①---|
口口口口 |②---|
口口口口 |③---|
口口口口 |④---|
25
口口口口 |①---|
①②③④ |②---|
口口口口 |③---|
口口口口 |④---|
26
口口口口 |①---|
口口口口 |②---|
④③②① |③---|
口口口口 |④---|
27
口口口口 |①---|
口口口口 |②---|
口口口口 |③---|
①②③④ |④---|
28
口口口口 |①---|
口④③口 |②---|
口②①口 |③---|
口口口口 |④---|
29
口口口口 |①---|
口③③口 |②---|
口②②口 |③---|
口①①口 |----|
30
口口口口 |①---|
①②口口 |----|
口口口口 |②---|
口口口口 |----|
31
口口口口 |①---|
口口①② |----|
口口口口 |②---|
口口口口 |----|
32
口口口口 |①---|
口口口口 |----|
口口②① |②---|
口口口口 |----|
33
口口口口 |①---|
口口口口 |----|
②①口口 |②---|
口口口口 |----|
34
口口口口 |①---|
①②口口 |----|
口口口口 |②---|
口口口口 |----|
35
口口口口 |①---|
口口①② |----|
口口口口 |②---|
口口口口 |----|
36
口口口口 |①---|
口口口口 |----|
口口②① |②---|
口口口口 |----|
37
口口口口 |①---|
口口口口 |----|
②①口口 |②---|
口口口口 |----|
38
口口口口 |①---|
①②③④ |②---|
口口口口 |③---|
口口口口 |④---|
39
口④④口 |①---|
口③③口 |②---|
口②①口 |③---|
口口口口 |④---|
40
口口口口 |①---|
④③②① |②---|
口口口口 |③---|
口口口口 |④---|
41
口口口口 |①---|
口②②口 |----|
口①①口 |②---|
口口口口 |----|
42
①②③④ |①---|
口口口口 |②---|
口口口口 |③---|
口口口口 |④---|
43
口口口口 |①---|
口②①口 |②---|
口④④口 |③---|
口③③口 |④---|
44
④③②① |①---|
口口口口 |②---|
口口口口 |③---|
口口口口 |④---|
45
口②②口 |①---|
口①①口 |----|
口口口口 |②---|
口口口口 |----|
46
①②③④ |①---|
口口口口 |②---|
口口口口 |③---|
口口口口 |④---|
47
口口口口 |①---|
口②①口 |②---|
口④④口 |③---|
口③③口 |④---|
48
①②③④ |①---|
口口口口 |②---|
口口口口 |③---|
口口口口 |④---|
49
口口口口 |①---|
口②①口 |②---|
口④④口 |③---|
口③③口 |④---|
50
④③②① |①---|
口口口口 |②---|
口口口口 |③---|
口口口口 |④---|
51
口口口口 |①---|
口①②口 |②---|
口④④口 |③---|
口③③口 |④---|
52
④③②① |①---|
口口口口 |②---|
口口口口 |③---|
口口口口 |④---|
53
口口口口 |①---|
口①②口 |②---|
口④④口 |③---|
口③③口 |④---|
54
口①②口 |①---|
口口口口 |----|
口口口口 |②---|
口口口口 |----|
55
口口口口 |①---|
口①①口 |----|
口②②口 |②---|
口口口口 |----|
56
口口口口 |①---|
口①①口 |----|
口②②口 |②---|
口口口口 |----|
57
口口口口 |①---|
口①①口 |----|
口②②口 |②---|
口口口口 |----|
58
口①①口 |①---|
口②②口 |----|
口口口口 |②---|
口口口口 |----|
59
口口口口 |①---|
口口口口 |----|
口①①口 |②---|
口②②口 |----|
60
口口口口 |①---|
口口口口 |----|
①口口② |②---|
口口口口 |----|
61
口口口口 |①---|
①口口② |----|
口口口口 |②---|
口口口口 |----|
62
口口口口 |①---|
口口口口 |----|
口②①口 |②---|
口口口口 |----|
63
口口口口 |①---|
口②①口 |----|
口口口口 |②---|
口口口口 |----|
最終更新:2018年10月22日 16:15