アットウィキロゴ
トキメキメカニクス
ARM×狐夢想 feat. nomico

BASIC

Level: 3
BPM: 175
Notes: 235

1
口口口口 |----|
口口口口 |----|
口口口口 |----|
口口口口 |----|
2
口口口口 |①---|
口口口口 |----|
口②①口 |----|
口口口口 |--②-|
3
口口口口 |----|
口口口口 |----|
口口口口 |----|
口口口口 |----|
4
口口口口 |①---|
口口口口 |----|
口②①口 |----|
口口口口 |--②-|
5
口①①口 |----|
口口口口 |----|
口口口口 |①---|
口口口口 |----|
6
口口口口 |----|
口口口口 |----|
口口口口 |----|
口口口口 |----|
7
③口口③ |--①-----|
口②②口 |-②------|
口①①口 |-③------|
口口口口 |----|
8
口口口口 |①---|
口口口口 |----|
口口口口 |----|
口①①口 |----|
9
口口口口 |①---|
口口②口 |----|
口口①口 |②---|
口口口口 |----|
10
口①①口 |①---|
口口口口 |----|
口口口口 |----|
口口口口 |----|
11
口口口口 |①---|
口①口口 |----|
口②口口 |②---|
口口口口 |----|
12
口口口口 |①---|
③口口④ |②---|
口口口② |③---|
口①①口 |④---|
13
口口④口 |①---|
口②口口 |②---|
口口③口 |③---|
口①口口 |④---|
14
①口口② |①---|
口③④口 |②---|
口口口口 |③---|
口口口口 |④---|
15
口口口口 |①---|
口口口口 |②---|
①口口② |③---|
口③④口 |④---|
16
口口口口 |①---|
口①①口 |----|
口口口口 |----|
口口口口 |----|
17
口口口口 |----|
口口口口 |----|
口口口口 |----|
口口口口 |----|
18
口口口口 |①---|
口①口口 |----|
口口①口 |----|
口口口口 |----|
19
口口口口 |①---|
口口①口 |----|
口①口口 |----|
口口口口 |----|
20
口口口口 |①---|
①口口口 |----|
口②口口 |②---|
口口口口 |----|
21
口口口口 |①---|
口口①口 |----|
口口口② |②---|
口口口口 |----|
22
口口口口 |①---|
口口口① |----|
口口②口 |②---|
口口口口 |----|
23
口口口口 |①---|
口①口口 |----|
②口口口 |②---|
口口口口 |----|
24
口①口口 |①---|
口口②口 |----|
口口口口 |②---|
口口口口 |----|
25
口口口口 |①---|
口口口口 |----|
口①口口 |②---|
口口②口 |----|
26
口口口口 |①---|
口口口口 |----|
口口②口 |②---|
口①口口 |----|
27
口口口口 |①---|
口①口口 |----|
口口口口 |----|
口口口口 |----|
28
口口口口 |①---|
口口口口 |----|
口②口② |②---|
口①口① |----|
29
①②③④ |①---|
口口口口 |②---|
口口口口 |③---|
口口口口 |④---|
30
口口口口 |①---|
口口口口 |----|
①口①口 |②---|
②口②口 |----|
31
④③②① |①---|
口口口口 |②---|
口口口口 |③---|
口口口口 |④---|
32
口口口口 |①---|
口口口口 |----|
口②口② |②---|
口①口① |----|
33
①②③④ |①---|
口口口口 |②---|
口口口口 |③---|
口口口口 |④---|
34
口口口口 |①---|
口口口口 |----|
口①②口 |②---|
口口口口 |----|
35
①口口① |①---|
口口口口 |----|
口口口口 |----|
口口口口 |----|
36
口口口口 |①---|
口②④口 |②---|
口③①口 |③---|
口口口口 |④---|
37
口口口口 |①---|
口②④口 |②---|
口③①口 |③---|
口口口口 |④---|
38
①②③口 |①---|
口口口口 |②---|
口口口口 |③---|
口口口口 |----|
39
口口口口 |①---|
口口口口 |②---|
口口口口 |③---|
①②③④ |④---|
40
口口口口 |①---|
口④②口 |②---|
口①③口 |③---|
口口口口 |④---|
41
口口口口 |①---|
口④②口 |②---|
口①③口 |③---|
口口口口 |④---|
42
口③②① |①---|
口口口口 |②---|
口口口口 |③---|
口口口口 |----|
43
口口口口 |①---|
①口口① |----|
口口口口 |②---|
②口口② |----|
44
口口口口 |①---|
口口口口 |②---|
口④③口 |③---|
口②①口 |④---|
45
口④③口 |①---|
口②①口 |②---|
口口口口 |③---|
口口口口 |④---|
46
②口口① |①---|
④口口③ |②---|
口口口口 |③---|
口口口口 |④---|
47
口口口口 |①---|
口口口口 |②---|
②口口① |③---|
④口口③ |④---|
48
口口④口 |①---|
口口③口 |②---|
口口②口 |③---|
口口①口 |④---|
49
口④口口 |①---|
口③口口 |②---|
口②口口 |③---|
口①口口 |④---|
50
口口口① |①---|
口口口② |②---|
口口口③ |③---|
口口口④ |④---|
51
①口口口 |①---|
②口口口 |②---|
③口口口 |③---|
④口口口 |④---|
52
口口口口 |①---|
口口①口 |----|
口口口口 |----|
口口口口 |----|
53
口口口口 |①---|
口①口口 |----|
口口口口 |----|
口口口口 |----|
54
口口口口 |①---|
口口口口 |----|
口口①口 |----|
口口口口 |----|
55
口口口口 |①---|
口口口口 |----|
口①口口 |----|
口口口口 |----|
56
口口口口 |①---|
口口口② |----|
口口口口 |②---|
口口口① |----|
57
口口②口 |①---|
口口口口 |----|
口口①口 |②---|
口口口口 |----|
58
口口口口 |①---|
口②口口 |----|
口口口口 |②---|
口①口口 |----|
59
口口口口 |①---|
口口口口 |----|
①口③口 |②---|
口口②口 |③---|
60
口口口口 |①---|
口①①口 |----|
口口口口 |----|
口口口口 |----|
61
口口口口 |①---|
口①①口 |----|
口口口口 |----|
口口口口 |----|
62
①口口① |①---|
口口口口 |----|
口口口口 |----|
口口口口 |----|
63
口口口口 |①---|
口①①口 |----|
口口口口 |----|
口口口口 |----|
64
口口口口 |①---|
口口口口 |----|
①口口① |----|
口口口口 |----|
65
口口口口 |①---|
口口口口 |----|
口口口口 |----|
口①①口 |----|
66
口口口口 |①---|
口口口口 |----|
口①①口 |----|
口口口口 |----|
67
口口口口 |①---|
口①①口 |----|
口口口口 |----|
口口口口 |----|
68
口口口口 |----|
口口口口 |----|
口口口口 |----|
口口口口 |----|
69
口口口口 |①---|
口口口口 |②---|
①口口② |③---|
口③④口 |④---|
70
口口口口 |①---|
口④②口 |②---|
口①③口 |③---|
口口口口 |④---|
71
口口口口 |①---|
口④②口 |②---|
口①③口 |③---|
口口口口 |④---|
72
口③②① |①---|
口口口口 |②---|
口口口口 |③---|
口口口口 |----|
73
口口口口 |①---|
口口口口 |②---|
口口口口 |③---|
④③②① |④---|
74
口口口口 |①---|
口②④口 |②---|
口③①口 |③---|
口口口口 |④---|
75
口口口口 |①---|
口②④口 |②---|
口③①口 |③---|
口口口口 |④---|
76
①②③口 |①---|
口口口口 |②---|
口口口口 |③---|
口口口口 |----|
77
口口口口 |①---|
②②①① |----|
口口口口 |②---|
口口口口 |----|
78
口口口口 |①---|
口口口口 |②---|
口④③口 |③---|
口②①口 |④---|
79
口④③口 |①---|
口②①口 |②---|
口口口口 |③---|
口口口口 |④---|
80
②口口① |①---|
④口口③ |②---|
口口口口 |③---|
口口口口 |④---|
81
口口口口 |①---|
口口口口 |②---|
②口口① |③---|
④口口③ |④---|
82
口口口口 |①---|
口口口口 |----|
口②①口 |②---|
口口口口 |----|
83
口口口口 |①---|
②口口② |----|
口口口口 |②---|
口①①口 |----|
84
口口口口 |----|
口口口口 |----|
口口口口 |----|
口口口口 |----|
85
口口口口 |①---|
口口口口 |----|
口①①口 |----|
口口口口 |----|

accuracy: 100%
最終更新:2022年04月09日 17:35