アットウィキロゴ
トキメキメカニクス
ARM×狐夢想 feat. nomico

ADVANCED

Level: 7
BPM: 175
Notes: 470

1
口口口口 |----|
口口口口 |----|
口口口口 |----|
口口口口 |----|
2
口口②口 |①---|
口口口口 |②---|
口③④口 |③-④-|
⑤口①口 |--⑤-|
3
①③口口 |--①-|
口口②口 |②---|
口口口口 |③---|
口④口口 |④---|
4
口口②口 |①---|
口口口口 |②---|
口③④口 |③-④-|
⑤口①口 |--⑤-|
5
①口口③ |--①-|
口口②口 |②---|
口口口口 |③---|
口口口口 |----|
6
口口口口 |----|
口口口口 |----|
口口口口 |----|
口口口口 |----|
7
③口口③ |--①-----|
口口口口 |-②------|
口②②口 |-③------|
口①①口 |----|
8
口口口口 |①---|
口口口口 |----|
口口口口 |----|
口①①口 |----|
9
口口口④ |①---|
口口口③ |②---|
口口口② |③---|
口口口① |④---|
10
口口口口 |①---|
口口口口 |----|
口①①口 |----|
口口口口 |----|
11
④口口口 |①---|
③口口口 |②---|
②口口口 |③---|
①口口口 |④---|
12
口口口口 |①---|
口④①口 |②---|
口③②口 |③---|
口口口口 |④---|
13
口口口④ |①---|
口口口③ |②---|
口口口② |③---|
口口口① |④---|
14
口①②口 |①-②-|
口③④口 |③-④-|
口⑤⑥口 |⑤-⑥-|
口⑦⑧口 |⑦-⑧-|
15
①⑨⑩② |①②③④|
③⑪⑫④ |⑤⑥⑦⑧|
⑤⑬⑭⑥ |⑨⑩⑪⑫|
⑦⑮⑯⑧ |⑬⑭⑮⑯|
16
①口口口 |①---|
口口口口 |----|
口口口口 |----|
口口口口 |----|
17
口口口口 |----|
口口口口 |----|
口口口口 |----|
口口口口 |----|
18
②口口⑦ |①-②-|
④口口⑤ |③-④-|
⑥口口③ |⑤-⑥-|
⑧口口① |⑦-⑧-|
19
口②⑦口 |①-②-|
口④⑤口 |③-④-|
口⑥③口 |⑤-⑥-|
口⑧①口 |⑦-⑧-|
20
②口口⑤ |①-②-|
口③④口 |③-④-|
⑦口口口 |⑤---|
口口⑥① |⑥-⑦-|
21
②口口口 |--①-|
①⑤口口 |--②-|
口口④口 |--③-|
口口口③ |④-⑤-|
22
⑦口口④ |--①-|
③⑥⑤口 |②-③-|
口口口② |④-⑤-|
①口口口 |⑥-⑦-|
23
口口③口 |--①-|
口口口口 |②-③-|
口②口口 |----|
口口①口 |----|
24
②口口⑤ |--①-|
口③④口 |②-③-|
⑥口口口 |④-⑤-|
口口口① |--⑥-|
25
②口口口 |--①-|
①⑤口口 |--②-|
口口④口 |--③-|
口口口③ |④-⑤-|
26
口口口① |--①-|
②口⑦口 |②-③-|
口⑥口③ |④-⑤-|
④口⑤口 |⑥-⑦-|
27
口口口口 |----|
口口口口 |----|
口口口口 |----|
口口口口 |----|
28
④口口③ |①---|
口②①口 |②---|
口①②口 |③---|
③口口④ |④---|
29
口④⑤口 |①-②-|
⑥口口③ |③-④-|
②口口⑦ |⑤-⑥-|
口口①口 |⑦---|
30
口④③口 |①---|
口②①口 |②---|
口①②口 |③---|
口③④口 |④---|
31
⑤口口④ |①-②-|
③口口⑥ |③-④-|
⑦口口② |⑤-⑥-|
①口口口 |⑦---|
32
③口口④ |①---|
口①②口 |②---|
口②①口 |③---|
④口口③ |④---|
33
口①②口 |①-②-|
口③④口 |③-④-|
口⑤⑥口 |⑤-⑥-|
口⑦口口 |⑦---|
34
口口口口 |①---|
①口口① |----|
口口口口 |②---|
②口口② |----|
35
口①①口 |①---|
口⑤口口 |②---|
口口⑤口 |③---|
④③②口 |④-⑤-|
36
⑥口口③ |--①-|
口⑤②口 |②-③-|
口口口口 |--④-|
口④①口 |⑤-⑥-|
37
⑥口⑥③ |--①-|
口⑤②口 |②-③-|
口口口口 |--④-|
口④①口 |⑤-⑥-|
38
口②口② |----|
口③③口 |①---|
口①口① |②---|
口口口口 |--③-|
39
口口口口 |--①-|
口口⑥⑤ |②-③-|
①⑥口④ |④-⑤-|
口②③口 |--⑥-|
40
③口口⑥ |--①-|
口②⑤口 |②-③-|
口口口口 |--④-|
口①④口 |⑤-⑥-|
41
③⑥口⑥ |--①-|
②口口⑤ |②-③-|
口口口口 |--④-|
①口口④ |⑤-⑥-|
42
②口②口 |----|
口口口口 |①---|
①口①口 |②---|
口口口口 |----|
43
口口口① |①---|
口①①口 |----|
②②口口 |②---|
口口②口 |----|
44
③口口③ |①---|
①口口① |--②-|
口②②口 |③---|
口口口口 |----|
45
口口口口 |----|
口口口口 |----|
口口口口 |----|
口口口口 |----|
46
①⑥③口 |①--②|
口④口口 |--③-|
口口口口 |④--⑤|
口⑤②口 |--⑥-|
47
口口口① |①---|
②口口口 |②---|
口口口③ |③---|
④口口口 |④---|
48
口⑥③① |①--②|
口④口口 |--③-|
口口口口 |④--⑤|
口⑤②口 |--⑥-|
49
③口④口 |①--②|
⑤口①口 |--③-|
口口口⑥ |④-⑤-|
②⑦口口 |⑥-⑦-|
50
口①⑤口 |①-②-|
口⑥②口 |③-④-|
口③⑦口 |⑤-⑥-|
口⑧④口 |⑦-⑧-|
51
②⑩⑨① |①②③④|
④⑫⑪③ |⑤⑥⑦⑧|
⑥⑭⑬⑤ |⑨⑩⑪⑫|
⑧⑯⑮⑦ |⑬⑭⑮⑯|
52
口口⑤口 |--①-|
④⑥口③ |②-③-|
②口⑥① |④-⑤-|
口口口口 |--⑥-|
53
②口口① |--①-|
口口口③ |--②-|
口口口④ |--③-|
口口口⑤ |④-⑤-|
54
口④⑤口 |--①-|
口口①口 |②-③-|
口②③口 |④-⑤-|
口⑥⑥口 |--⑥-|
55
③口口口 |--①-|
②口口口 |②-③-|
①口口口 |----|
口口口口 |----|
56
口⑤④口 |--①-|
口①口口 |②-③-|
口③②口 |④-⑤-|
口口口⑥ |--⑥-|
57
①口口② |--①-|
③口口口 |--②-|
④口口口 |--③-|
⑤口口口 |④-⑤-|
58
⑦⑦口⑥ |--①-|
口③口⑤ |②-③-|
口口②④ |④-⑤-|
口①口口 |⑥-⑦-|
59
口⑤⑤口 |--①-|
③口口③ |-②--|
口④④口 |③---|
①①②② |④-⑤-|
60
口口口口 |----|
口口口口 |----|
口口口口 |----|
口口口口 |----|
61
口口口③ |----|
口口②口 |----|
口口口口 |①---|
口口口① |②-③-|
62
①口口口 |----|
口②口口 |①-②-|
口口口口 |--③-|
口④③口 |--④-|
63
口口③口 |----|
口口②口 |----|
口口口口 |①---|
口口①口 |②-③-|
64
口③口口 |----|
口②口口 |----|
口口口口 |①---|
口①口口 |②-③-|
65
口口口⑤ |--①-|
口口口④ |②---|
口②①口 |③---|
口口口③ |④-⑤-|
66
口口口口 |----|
③口②口 |①-②-|
口口口口 |--③-|
口④①口 |--④-|
67
口口口口 |----|
口口口口 |----|
口口口口 |----|
口口口口 |----|
68
口口口口 |----|
口口口口 |----|
口口口口 |----|
口口口口 |----|
69
①口⑨口 |①-②-|
⑥⑩口③ |③④⑤-|
②④⑩⑦ |⑥⑦⑧-|
⑧⑨口⑤ |⑨-⑩-|
70
⑥口口③ |--①-|
口⑤②口 |②-③-|
口口口口 |--④-|
口④①口 |⑤-⑥-|
71
⑥口⑥③ |--①-|
口⑤②口 |②-③-|
口口口口 |--④-|
口④①口 |⑤-⑥-|
72
口②口② |----|
口③③口 |①---|
口①口① |②---|
口口口口 |--③-|
73
口口口口 |--①-|
口口⑥⑤ |②-③-|
①⑥口④ |④-⑤-|
口②③口 |--⑥-|
74
③口口⑥ |--①-|
口②⑤口 |②-③-|
口口口口 |--④-|
口①④口 |⑤-⑥-|
75
③⑥口⑥ |--①-|
②口口⑤ |②-③-|
口口口口 |--④-|
①口口④ |⑤-⑥-|
76
②口②口 |----|
口口口口 |①---|
①口①口 |②---|
口口口口 |----|
77
口口口① |①---|
口①①口 |----|
②②口口 |②---|
口口②口 |----|
78
③口口③ |①---|
①口⑤① |--②-|
口②②口 |③--④|
口口④口 |--⑤-|
79
口①口⑧ |①-②-|
⑦口口② |③-④-|
③口口⑥ |⑤-⑥-|
⑤口口④ |⑦-⑧-|
80
口①⑤口 |①-②-|
口⑥②口 |③-④-|
口③⑦口 |⑤-⑥-|
口⑧④口 |⑦-⑧-|
81
②⑩⑨① |①②③④|
④⑫⑪③ |⑤⑥⑦⑧|
⑥⑭⑬⑤ |⑨⑩⑪⑫|
⑧⑯⑮⑦ |⑬⑭⑮⑯|
82
⑤口口① |①---|
口③④口 |②---|
口口口口 |③-④-|
口口口② |--⑤-|
83
口③③口 |--①-|
口口口口 |②---|
口②②口 |③---|
①口口口 |----|
84
口口口口 |----|
口口口口 |----|
口口口口 |----|
口口口口 |----|
85
口口口口 |①---|
口①口口 |----|
①口①口 |----|
口①口口 |----|

accuracy: 100%
最終更新:2022年04月09日 18:01