アットウィキロゴ
虹の先に何があるか
あさき

ADVANCED

Level: 7
BPM: 216
Notes: 409

1
口口口口 |----|
口①①口 |----|
口口口口 |----|
口口口口 |--①-|
2
口口口口 |----|
口口口① |①---|
口口口② |②---|
口口口③ |③---|
3
口口口口 |①---|
口④④口 |②---|
口口口口 |③---|
③②①口 |--④-|
4
口口口口 |----|
①口口口 |①---|
②口口口 |②---|
③口口口 |③---|
5
口口口口 |①---|
口④④口 |②---|
口口口口 |③---|
口①②③ |--④-|
6
口①②③ |----|
口口口口 |①---|
口口口口 |②---|
口口口口 |③---|
7
口口口口 |①---|
口口口① |②---|
口口口② |③-④-|
③④⑤⑥ |⑤-⑥-|
8
③②①口 |----|
口口口口 |①---|
口口口口 |②---|
口口口口 |③---|
9
口④④口 |①---|
①口>⑤ |②---|
②口>⑤ |③-④-|
口③③口 |--⑤-|
10
口口口口 |----|
口①口口 |①---|
口②口口 |----|
口口口口 |②---|
11
④<口口 |----|
口③口② |①---|
口口口② |②---|
口①口口 |③-④-|
12
①口∨口 |----|
口口①口 |----|
口口口口 |①---|
口口口口 |----|
13
口口口口 |①---|
口∨①口 |----|
口①口口
口口口口

口口口口
口口口口
口②口口 |②---|
口口>②

③<口口
③<口口
口口口口
口口口③ |--③-|
14
口口口口 |----|
口口①口 |①---|
口口②口 |----|
口口口口 |②---|
15
口口口口 |----|
口口口口 |①---|
口口口口 |----|
口②①口 |②---|
16
③口>③ |----|
③②>③ |①---|
口①口口 |----|
口口口口 |②-③-|
17
①口口① |----|
①口口① |----|
口口口口 |----|
口口口口 |--①-|
18
口口口口 |----|
口口①口 |----|
口口口口 |----|
口口口口 |①---|
19
口口口口 |①---|
⑤口口口 |②---|
口口①口 |③---|
④③②口 |④-⑤-|
20
口①①口 |--①-|
口②口口 |----|
口口口口 |----|
口口口口 |②---|
21
口口口口 |①---|
口口>⑤ |②---|
口①口口 |③---|
口②③④ |④-⑤-|
22
口①口口 |----|
②口口① |----|
③<口口 |①---|
口口口口 |②-③-|
23
口口口口 |----|
口口①口 |①---|
口口口② |②---|
口口③口 |③---|
24
口口口口 |----|
口口口① |①---|
①口②口 |②---|
口口口③ |③---|
25
④口口④ |----|
口口①口 |①---|
口②口口 |②---|
口口③口 |③-④-|
26
口①①口 |----|
口②口口 |----|
口口口口 |①---|
口口口口 |②---|
27
口口口口 |①---|
口口口⑤ |②---|
口①口口 |③---|
口②③④ |④-⑤-|
28
口①①口 |--①-|
口口②口 |----|
口口口口 |----|
口口口口 |②---|
29
口口口口 |①---|
⑤<口口 |②---|
口口①口 |③---|
④③②口 |④-⑤-|
30
口口口口 |----|
①口口① |----|
口口>② |----|
口口口口 |①-②-|
31
口口口口 |----|
口①口口 |①---|
②口口口 |②---|
口③口口 |③---|
32
口口口口 |----|
①口口口 |①---|
口②口① |②---|
③口口口 |③---|
33
④①①④ |----|
口③③口 |①---|
口②②口 |②-③-|
口口口口 |--④-|
34
口口口口 |----|
口②口口 |----|
①口口① |①---|
口口口口 |②---|
35
口口口口 |①---|
口口口⑤ |②---|
口①口口 |③---|
口②③④ |④-⑤-|
36
口①①口 |--①-|
口口②口 |----|
口口口口 |----|
口口口口 |②---|
37
口口口口 |①---|
⑤<口口 |②---|
口口①口 |③---|
④③②口 |④-⑤-|
38
口口口口 |----|
①口口① |----|
口口口② |----|
口口口口 |①-②-|
39
口①①口 |--①-|
口③④口 |----|
口②⑤口 |②-③-|
口口口口 |④-⑤-|
40
②口口② |----|
④口③口 |①---|
③口④口 |②---|
①口口① |③-④-|
41
④⑤⑤④ |--①-|
口②口① |②---|
口①口② |③-④-|
口③③口 |--⑤-|
42
口口口口 |----|
口口②口 |①---|
①口口① |----|
口口口口 |②---|
43
口口口口 |①---|
⑤口口口 |②---|
口口①口 |③---|
④③②口 |④-⑤-|
44
口①①口 |--①-|
口②口口 |----|
口口口口 |----|
口口口口 |②---|
45
口口口口 |①---|
口口>⑤ |②---|
口①口口 |③---|
口②③④ |④-⑤-|
46
口口口口 |----|
①口口① |----|
②口口口 |----|
口口口口 |①-②-|
47
口口口口 |----|
口②①口 |----|
口④③口 |①-②-|
口口口口 |③-④-|
48
口③③口 |----|
口口口口 |①---|
①口口① |②---|
②口口② |③---|
49
口口口口 |①---|
口口>① |----|
口口口口
口口口口

口口口口
口口口②
②<口口 |②---|
口口口口 |----|
50
口口口口 |①---|
口口口口 |----|
①口口口
口口>①

口口口口
②口口口
口③口口 |----|
口口口② |②-③-|
51
②口口② |----|
口口口口 |----|
口口口口 |①---|
口①①口 |--②-|
52
口口口口 |--①-|
①口口① |--②-|
②<>② |----|
口口口口 |----|
53
③口口③ |--①-|
口口>④ |----|
①①①① |②-③-|
口②②口 |--④-|
54
口口口口 |----|
①口口① |----|
②<口口 |----|
口口口口 |①-②-|
55
口口口口 |----|
口口口口 |----|
①口口口 |①-②-|
④③②① |③-④-|
56
③口口③ |----|
口①①口 |①---|
口②②口 |②-③-|
④口口④ |--④-|
57
口⑤⑤口 |--①-|
①>⑥② |②-③-|
③口口④ |④-⑤-|
口口口口 |--⑥-|
58
口口口口 |----|
口口①口 |----|
①<口口 |①---|
口口口口 |----|
59
口口口口 |①---|
口口口口 |----|
①口口口
口口>①

③<>③
口②②口
口口口口 |②---|
口口口② |--③-|
60
①①①① |----|
口②②口 |----|
口口口口 |----|
口口口口 |①-②-|
61
口口口口 |----|
②口口① |----|
④口口③ |①-②-|
口口口口 |③-④-|
62
口②③口 |----|
口口口口 |----|
口①①口 |①---|
口口口口 |②-③-|
63
口口口口 |----|
①①>④ |①---|
②②>④ |②---|
③③口口 |③-④-|
64
∨∨口口 |----|
②②口① |----|
①①口① |----|
口口口口 |①-②-|
65
口口口口 |----|
①①②口 |----|
口口②口 |①---|
口口口口 |--②-|
66
口口口口 |----|
口口>③ |----|
口口口口 |①---|
口口①② |②-③-|
67
④④< |----|
①口口① |①---|
②口口口 |②---|
③口口口 |③-④-|
68
①①①① |----|
②口口② |----|
口口口口 |----|
口口口口 |①-②-|
69
口口口口 |----|
口④③口 |----|
口②①口 |①-②-|
口口口口 |③-④-|
70
口④④口 |----|
①口口① |①---|
②口口② |②---|
③口口③ |③-④-|
71
口口口口 |----|
口①口④ |①---|
口口②口 |②---|
口口口③ |③-④-|
72
口口口口 |----|
④口①口 |①---|
口②口口 |②---|
③口口口 |③-④-|
73
口②①口 |--①-|
口④③口 |②-③-|
口口⑤口 |④-⑤-|
口口口口 |----|
74
口②∨① |----|
②┼┼< |①---|
┼┼② |②---|
①∧②口 |----|
75
口口口口 |----|
口口口口 |----|
口口口口 |----|
口口口口 |----|
76
口①口口 |----|
①口口口 |----|
口口口① |----|
口口①口 |①---|
77
口口口口 |----|
④口①口 |①---|
口②口口 |②---|
③口口口 |③-④-|
78
口口口口 |----|
口口①口 |①---|
口口②口 |②---|
口口③口 |③---|
79
④<>④ |①---|
口③口口 |②---|
口②口口 |③---|
口①口口 |--④-|
80
①①①① |----|
口②②口 |----|
口口口口 |----|
口口口口 |①-②-|
81
口口口口 |----|
③口口② |①---|
⑤口口④ |②-③-|
①口口① |④-⑤-|
82
口口口口 |----|
③口口口 |----|
口口口口 |①---|
②①口口 |②-③-|
83
口口口口 |----|
口①>④ |①---|
口口②口 |②---|
口口口③ |③-④-|
84
口口口口 |----|
①口口① |----|
②口口口 |----|
口口口口 |①-②-|
85
口口口口 |----|
口①口④ |①---|
口口②口 |②---|
口口口③ |③-④-|
86
口口口口 |----|
④口①口 |①---|
口②口口 |②---|
③口口口 |③-④-|
87
④口口④ |----|
口①①口 |①---|
口②②口 |②---|
口③③口 |③-④-|
88
④口口④ |----|
①口口② |①---|
①口口② |②---|
口③③口 |③-④-|
89
口口口口 |----|
口①口口 |①---|
口②口口 |②---|
口③口口 |③---|
90
口口口∨ |①---|
口口口① |----|
口口口口
口口口口

口口口口
②口口②
口口口口 |----|
口口口口 |②---|
91
口口口口 |①---|
口口口口 |----|
①<口口
口口口口

口口口口
口口口口
②口口口 |----|
口口口口 |--②-|
最終更新:2019年11月03日 03:05