アットウィキロゴ
虹の先に何があるか
あさき

EXTREME

Level: 9
BPM: 216
Notes: 646

1
口①①口 |----|
口口口口 |----|
口口口口 |----|
口口口口 |--①-|
2
口口④口 |----|
口口①口 |①---|
口口口② |②---|
口③口口 |③-④-|
3
口⑥⑥② |--①-|
③口口口 |②---|
口口④口 |③-④-|
口⑤①口 |⑤-⑥-|
4
口口④口 |----|
口口①口 |①---|
口口口② |②---|
口③口口 |③-④-|
5
口⑥⑥② |--①-|
③口口口 |②---|
口口④口 |③-④-|
口⑤①口 |⑤-⑥-|
6
口口⑤口 |--①-|
口口②口 |②---|
口口口③ |③---|
口④口① |④-⑤-|
7
口⑥⑥② |--①-|
③口口口 |②---|
口口④口 |③-④-|
口⑤①口 |⑤-⑥-|
8
口口⑤口 |--①-|
口口②口 |②---|
口口口③ |③---|
口④口① |④-⑤-|
9
④③口② |--①-|
∨⑤口口 |②---|
|口①口 |③-④-|
⑤口④③ |--⑤-|
10
口口②⑤ |--①-|
口口③③ |②---|
口口④① |③---|
口口口口 |④-⑤-|
11
口②>⑥ |--①-|
口⑤④③ |②---|
口①口⑥ |③-④-|
③口口口 |⑤-⑥-|
12
②<口② |----|
口口口口 |①---|
口①③口 |②---|
口口口口 |③---|
13
①口口口 |①---|
口口②∨ |②---|
口口口①
口口口口

口口口口
③口口口
口口口③ |③---|
口口口口

∨⑤口口
|④口口
⑤口口口
口口口口 |④-⑤-|
14
口口⑤② |--①-|
口口③③ |②---|
口口①④ |③---|
口口口口 |④-⑤-|
15
口②口⑥ |--①-|
口⑤④③ |②---|
口①口⑥ |③-④-|
口口口口 |⑤-⑥-|
16
口口口口 |----|
③口口④ |①---|
④口②∨ |②---|
口口①④ |③-④-|
17
⑥②①口 |----|
|④③口 |①-②-|
|⑥⑤口 |③-④-|
∧口口⑥ |⑤-⑥-|
18
口口①口 |----|
口②口口 |----|
口口口口 |----|
口口口口 |①-②-|
19
口⑤口⑦ |①-②-|
口口④口 |③-④-|
口③⑥① |⑤---|
口口②口 |⑥-⑦-|
20
①②①口 |--①-|
口口③① |----|
口口口口 |----|
口口口口 |②-③-|
21
口口⑤口 |①-②-|
口④口口 |③-④-|
①口③口 |⑤---|
口②口口

口⑦<口
⑦口口口
∧口口口
口口口⑥ |⑥-⑦-|
22
口①口口 |----|
①①①口 |----|
口口②口 |①---|
口③口口 |②-③-|
23
口口⑥② |--①-|
③口口⑥ |②---|
口④口口 |③-④-|
⑤口①口 |⑤-⑥-|
24
口口⑥② |--①-|
③口口⑥ |②---|
口④口口 |③-④-|
⑤口①口 |⑤-⑥-|
25
口口⑥② |--①-|
③口口⑥ |②---|
口④口口 |③-④-|
⑤口①口 |⑤-⑥-|
26
③口口③ |--①-|
口口口口 |②---|
口口②① |③---|
口口①口 |----|
27
⑧①口口 |①-②-|
③口②口 |③-④-|
口④口口 |⑤-⑥-|
口⑤⑥⑦ |⑦-⑧-|
28
口口口口 |--①-|
口口>① |----|
口口口口
口口口口

口口口③
口④口②
口口口口 |②---|
口口口口 |③-④-|
29
口②口口 |①-②-|
口口③口 |③-④-|
口④口①
口口口口

⑧―<口
口口口口
口口口口 |⑤-⑥-|
⑦⑥⑤口 |⑦-⑧-|
30
①口口口 |----|
口口②口 |----|
口口口① |----|
口口口口 |①-②-|
31
口口⑥② |--①-|
③口口⑥ |②---|
口④口口 |③-④-|
⑤口①口 |⑤-⑥-|
32
口口⑥② |--①-|
③口口⑥ |②---|
口④口口 |③-④-|
⑤口①口 |⑤-⑥-|
33
③④口② |--①-|
口⑤⑤口 |②---|
口口①口 |③-④-|
口口③④ |--⑤-|
34
③口③④ |--①-|
口口⑤口 |②---|
①②口口 |③---|
口①口口 |④-⑤-|
35
口口口⑧ |①-②-|
口④口口 |③-④-|
口⑥③① |⑤-⑥-|
⑦②⑤口 |⑦-⑧-|
36
口>①口 |--①-|
口口口① |----|
口口口∧
口口口口

③口②口
口④口②
口口口口 |②---|
口口口口 |③-④-|
37
口口口口 |①-②-|
口口④口 |③-④-|
①③口口
口口②口

口⑧<口
⑧口口口
∧口⑥口 |⑤-⑥-|
口⑤口⑦ |⑦-⑧-|
38
口①口口 |----|
①口口口 |----|
口口①口 |----|
口②口口 |①-②-|
39
③口口④ |--①-|
口①①口 |----|
口口口口 |②-③-|
②口口⑤ |④-⑤-|
40
口③④口 |----|
②①口口 |①---|
①②④③ |②---|
口口口口 |③-④-|
41
④⑤⑤③ |--①-|
口口②① |②---|
口口口口 |③-④-|
③①②④ |--⑤-|
42
⑤口口③ |--①-|
口④口口 |②---|
①②口③ |③---|
口①口口 |④-⑤-|
43
口口口⑦ |--①-|
口口①口 |②-③-|
口口②口 |④-⑤-|
③④⑤⑥ |⑥-⑦-|
44
口>①口 |--①-|
口口口① |----|
口口口∧
口口口口

③口②口
④口口②
口口口口 |②---|
口口口口 |③-④-|
45
口⑦口口 |①-②-|
⑦┼<口 |③-④-|
①∧⑥口 |⑤---|
⑤④③② |⑥-⑦-|
46
口①②① |----|
①口口口 |----|
口口①② |----|
口口口口 |①-②-|
47
②口口口 |--①-|
口口口口 |②---|
③④⑤⑥ |③-④-|
口①口口 |⑤-⑥-|
48
④②口④ |--①-|
口口口口 |②---|
口口口口 |③---|
③口①③ |④---|
49
口口口口 |①---|
口口>① |----|
口口口口
口口口口

口口口口
口口口②
②<口口 |②---|
口口口口 |----|
50
口口口口 |①---|
口口口口 |----|
①口口口
口>―①

口口口口
口②口口
口口③口 |----|
口口口② |②-③-|
51
口口④口 |----|
口口①④ |----|
口②口口 |①-②-|
③口口口 |③-④-|
52
口①口口 |--①-|
①∨口口 |--②-|
②┼<口
口②口口

口口口③
口④④口
口口口③ |③---|
口口口口 |--④-|
53
③②口④ |--①-|
口>⑤口 |②---|
①口①口 |③-④-|
④①口③ |--⑤-|
54
∨①口口 |----|
②口①口 |----|
口口口口 |----|
口口口口 |①-②-|
55
口口口口 |----|
①④口口 |----|
口口口口 |①-②-|
④③②① |③-④-|
56
口①②③ |----|
④口③② |①---|
口①口口 |②-③-|
口口④口 |--④-|
57
口⑤⑤∨ |--①-|
口②口⑥ |②-③-|
①③③① |④-⑤-|
④②口④ |--⑥-|
58
②口④口 |--①-|
∨口③③ |②---|
③口口口 |③---|
口口①口 |④---|
59
口口口口 |①---|
②口口口 |②---|
①口口①
口口>①

④―<口
口③口口
口③口口 |③---|
④―<③ |--④-|
60
①口口口 |----|
①口口② |----|
①口口② |----|
①口口口 |①-②-|
61
口口③② |--①-|
口④口口 |②---|
口口⑤口 |③-④-|
口⑥①口 |⑤-⑥-|
62
②口口口 |--①-|
口口③③ |②---|
④①⑤口 |③---|
口⑤口口 |④-⑤-|
63
口②>④ |----|
②①口③ |①---|
口①>④ |②---|
口口口口 |③-④-|
64
②口口口 |--①-|
口③口口 |②---|
口③口口 |③---|
口①口口

口口口④
⑤<口口
④口口④
⑤<口口 |④-⑤-|
65
⑧②②⑧ |--①-|
③③④⑤ |②---|
口口口⑥ |③④⑤⑥|
③口①⑦ |⑦-⑧-|
66
口⑤②⑤ |--①-|
③口口口 |②---|
口③口口 |③---|
口①④④ |④-⑤-|
67
口>―④ |----|
②①口③ |①---|
①②口③ |②---|
口>―④ |③-④-|
68
口口口① |----|
②口口① |----|
②口口① |----|
口口口① |①-②-|
69
②③口口 |--①-|
口口④口 |②---|
口⑤口口 |③-④-|
口①⑥口 |⑤-⑥-|
70
⑤口⑤② |--①-|
口③口口 |②---|
③口①口 |③---|
口④口④ |④-⑤-|
71
口②口口 |--①-|
⑤④口口 |②---|
③口③口 |③---|
①⑤④口 |④-⑤-|
72
口口②口 |--①-|
口④③口 |②---|
④③口口 |③---|
口⑤⑤① |④-⑤-|
73
②⑤⑤③ |--①-|
②口口③ |②-③-|
口口①① |④-⑤-|
④口口④ |----|
74
∨口口⑤ |--①②|
④⑥①口 |③---|
∨⑥②④ |④-⑤-|
④③③口 |--⑥-|
75
口⑥⑥⑤ |----|
口口①口 |①②③-|
口口②④ |④-⑤-|
口口③口 |--⑥-|
76
口⑥⑥口 |--①-|
⑤口③② |②---|
口④口口 |③-④-|
⑤口⑤① |⑤-⑥-|
77
口口④口 |----|
口①口④ |①---|
①口②② |②---|
③③口口 |③-④-|
78
③④口② |--①-|
口口口口 |②---|
④③口口 |③---|
口口①口 |④---|
79
口口口口 |①---|
口①②口 |②---|
口口①口
口②口口

口口③口
口>―④
口口口③ |③---|
口>―④ |--④-|
80
②口口⑤ |--①-|
④④口④ |②---|
③①口⑤ |③---|
③口口④ |④-⑤-|
81
口②②口 |--①-|
口口口口 |②---|
口口口口
口①①口

⑥<口口
口口③口
口④口口 |③-④-|
口口口⑤ |⑤-⑥-|
82
③口⑤② |--①-|
口④⑤口 |②---|
④口③③ |③---|
口口①口 |④-⑤-|
83
⑤<口② |--①-|
⑤口口 |②---|
口③口口 |③---|
④口①口 |④-⑤-|
84
④口④② |--①-|
口④④口 |②---|
⑤③③口 |③---|
⑤口①口 |④-⑤-|
85
⑤②口⑤ |--①-|
②口口口 |②---|
口口口③ |③---|
口④①口 |④-⑤-|
86
口①口口 |----|
④①②口 |①---|
②④③口 |②---|
口③口口 |③-④-|
87
口⑤⑤② |--①-|
口③口口 |②---|
④口口③ |③---|
口④①口 |④-⑤-|
88
口④④① |----|
②口口口 |①---|
口②①③ |②---|
口口口③ |③-④-|
89
口口口⑤ |----|
⑥②①⑤ |①②③④|
⑥④③口 |⑤---|
口口口口 |⑥---|
90
口②②口 |①---|
口口口∨ |②---|
口口口①
口口口口

口口口口
口③口⑥
口口④⑤ |③-④-|
口⑤口口 |⑤-⑥-|
91
∨口口③ |①-②-|
|口口口 |③---|
①口口口
口口②口

口口⑦口
口④口口
⑦口⑤口 |④-⑤-|
口⑥口口 |⑥-⑦-|
92
口⑥⑥② |--①-|
③口口口 |②---|
口口④口 |③-④-|
口⑤①口 |⑤-⑥-|
93
口⑥口② |--①-|
③口口口 |②---|
口口④口 |③-④-|
口⑤①口 |⑤-⑥-|
最終更新:2019年11月03日 03:06