アットウィキロゴ
In The Ruins
good-cool feat. CHiCO

ADVANCED

Level: 8
BPM: 156
Notes: 618

1
口口口口 |----|
口口口口 |----|
口口口口 |----|
口口口口 |----|
2
口口口口 |----|
口口口口 |----|
口口口口 |----|
口口口口 |----|
3
①口④口 |①-②-|
⑥口⑦② |③-④-|
口③口⑧ |⑤-⑥-|
口⑤口口 |⑦-⑧-|
4
③⑧⑥口 |①-②-|
口口口② |③-④-|
⑤⑦口口 |⑤-⑥-|
①口④口 |⑦-⑧-|
5
口⑦口③ |①-②-|
口口⑤① |③-④-|
⑥口口口 |⑤-⑥-|
②④口⑧ |⑦-⑧-|
6
①口口① |①---|
口口口口 |----|
口口口口 |----|
口②②口 |②---|
7
①⑨⑨③ |①-②-|
②口口④ |③-④-|
口口口口 |⑤⑥⑦⑧|
⑤⑥⑦⑧ |⑨---|
8
口口口口 |①-②-|
①⑤④⑧ |③-④⑤|
②口口⑦ |--⑥-|
③口口⑥ |⑦-⑧-|
9
口①①口 |①--②|
口②②口 |--③-|
口③③口
口口口口

⑤⑥⑥⑤
口口口口
口口口口 |-④--|
口④④口 |⑤-⑥-|
10
口口口口 |①-②-|
①⑤④⑧ |③-④⑤|
②口口⑦ |--⑥-|
③口口⑥ |⑦-⑧-|
11
⑥①①⑥ |①---|
口②④口 |②-③-|
口口口口 |④-⑤-|
口⑤③口 |⑥---|
12
口口口口 |①-②-|
⑧④⑤① |③-④⑤|
⑦口口② |--⑥-|
⑥口口③ |⑦-⑧-|
13
口①①口 |①--②|
口②②口 |--③-|
口③③口
口口口口

⑥⑤⑤⑥
口口口口
口口口口 |-④--|
口④④口 |⑤-⑥-|
14
口口口口 |①-②-|
⑧⑤④① |③-④⑤|
⑦口口② |--⑥-|
⑥口口③ |⑦-⑧-|
15
⑤①①⑤ |①-②-|
口②②口 |③-④-|
口③③口 |--⑤-|
④口口④ |----|
16
口①口口 |①-②-|
口口②口 |③---|
口口口③
口口口口

⑤⑥⑥④
口口口口
口⑤④口 |④-⑤-|
口口口口 |--⑥-|
17
④口口④ |--①-|
口①②口 |②---|
①口口② |③---|
口③③口 |④---|
18
口口口口 |①---|
③口口② |②-③-|
③①①②
口口口口

口口口口
口口口口
口⑤④口 |----|
口口口口 |④-⑤-|
19
口④③口 |①-②-|
⑥②①⑤ |③-④-|
⑧口口⑦ |⑤-⑥-|
口口口口 |⑦-⑧-|
20
口⑤④① |①-②-|
口口②口 |③---|
⑤③口④ |④-⑤-|
口⑥⑥口 |--⑥-|
21
④口口④ |--①-|
口①②口 |②---|
口③③口 |③---|
①口口② |④---|
22
口口口口 |①---|
③口口② |②-③-|
③⑤④② |----|
口①①口 |④-⑤-|
23
口④③口 |①-②-|
⑥②①⑤ |③-④-|
⑧口口⑦ |⑤-⑥-|
口口口口 |⑦-⑧-|
24
④口口④ |①-②-|
口⑤口口 |--③-|
⑤②①口 |--④-|
②③③① |--⑤-|
25
口口③③ |--①-|
口口①口 |----|
口①口口 |--②-|
口口②② |③---|
26
③③⑥⑥ |①-②-|
口口口口 |③---|
①口口④ |④-⑤-|
口②⑤口 |⑥---|
27
⑦⑦⑦⑦ |①-②-|
①⑤⑤② |③-④-|
③口口④ |⑤-⑥-|
口⑥⑥口 |⑦---|
28
口⑤⑤口 |①---|
③口口④ |②---|
口②②口 |③-④-|
①口口① |--⑤-|
29
④口口④ |--①-|
口口口口 |②---|
①口口② |③---|
口③③口 |--④-|
30
口⑤⑤口 |--①-|
口①②口 |②---|
④②①④ |③-④-|
③口口③ |--⑤-|
31
⑤口口⑤ |①-②-|
①④④① |③-④-|
⑤②②⑤ |--⑤-|
③口口③ |----|
32
⑦⑦⑦⑦ |①-②-|
③⑤⑤① |③-④-|
口②④口 |⑤-⑥-|
③⑥⑥① |⑦---|
33
⑦⑥⑥⑦ |①-②-|
③口口③ |③-④-|
④②②④ |⑤-⑥-|
①⑤⑤① |--⑦-|
34
口口④口 |----|
口③②口 |①---|
口④③② |②-③-|
口①①口 |--④-|
35
④③③④ |--①-|
口口口② |--②-|
①口口口 |--③-|
口②①口 |④---|
36
⑦⑦⑦⑦ |①-②-|
①⑤⑤③ |③-④-|
口④②口 |⑤-⑥-|
①⑥⑥③ |⑦---|
37
⑦⑥⑥⑦ |①-②-|
③口口③ |③-④-|
④②②④ |⑤-⑥-|
①⑤⑤① |--⑦-|
38
口④④口 |----|
口②③口 |①---|
②③口口 |②-③-|
口①①口 |--④-|
39
⑤⑤⑤⑤ |①-②-|
③口口① |③-④-|
③口口① |--⑤-|
④②②④ |----|
40
口口口口 |①-②-|
口④③口 |③-④-|
口②①口
口口口口

⑧⑦⑦⑧
口口口口
口⑨⑨口 |⑤⑥-⑦|
⑥⑤⑤⑥ |⑧-⑨-|
41
口③③口 |①--②|
①③③① |--③-|
口口口口 |----|
口②②口 |----|
42
①口口① |①---|
①口口① |--②-|
②口口口
口口口口

口口口口
口口口③
口口口口 |----|
口口口口 |③---|
43
口口口① |①---|
口口口口 |--②-|
口②口口 |----|
口口③口 |③---|
44
①①①① |①---|
口口口③ |--②-|
②口口口 |----|
口口口口 |③---|
45
口口口口 |①---|
口②口口 |--②-|
口口口① |----|
③口口口 |③---|
46
①①①① |①---|
③口口② |--②-|
口口口口 |----|
口口口口 |③---|
47
①口口口 |①---|
口口口口 |--②-|
口口②口 |----|
口③口口 |③---|
48
①①①① |①---|
③口口口 |--②-|
口口口② |----|
口口口口 |③---|
49
③③③③ |①--②|
口口口口 |--③-|
口②①口 |----|
①口口② |----|
50
口口口口 |①---|
口口①② |--②-|
口口③③ |----|
口口②① |③---|
51
口口口口 |①---|
口②①口 |--②-|
口③③口 |----|
口①②口 |③---|
52
①口口① |①---|
口口口口 |----|
①口口① |----|
口口口口 |----|
53
④④⑧⑧ |①-②-|
③③⑦⑦ |③-④-|
②②⑥⑥ |⑤-⑥-|
①①⑤⑤ |⑦-⑧-|
54
口口口口 |①---|
①②口口 |--②-|
③③口口 |----|
②①口口 |③---|
55
口口口口 |①---|
口②①口 |--②-|
口③③口 |----|
③①②③ |③---|
56
①①①① |①---|
口口口口 |----|
口口口口 |----|
口口口口 |----|
57
④④⑧⑧ |①-②-|
③③⑦⑦ |③-④-|
②②⑥⑥ |⑤-⑥-|
①①⑤⑤ |⑦-⑧-|
58
口口口⑨ |①-②-|
①口口⑧ |③④⑤⑥|
②口口⑦ |--⑦-|
⑥⑤④③ |⑧-⑨-|
59
口①①口 |①--②|
口②②口 |--③-|
口③③口
口口口口

⑤⑥⑥⑤
口口口口
口口口口 |-④--|
口④④口 |⑤-⑥-|
60
口口口⑨ |①-②-|
①口口⑧ |③④⑤⑥|
②口口⑦ |--⑦-|
⑥⑤④③ |⑧-⑨-|
61
口①①口 |①---|
口口口口 |②③④⑤|
口⑤④口
口③②口

口⑩⑩口
口口口口
⑨口口⑧ |⑥⑦⑧⑨|
⑦口口⑥ |⑩---|
62
⑨口口① |①-②-|
⑧口口② |③④⑤⑥|
⑦口口口 |--⑦-|
③④⑤⑥ |⑧-⑨-|
63
口①①口 |①--②|
口②②口 |--③-|
口③③口
口口口口

⑥⑤⑤⑥
口口口口
口口口口 |-④--|
口④④口 |⑤-⑥-|
64
⑨口口口 |①-②-|
⑧口口① |③④⑤⑥|
⑦口口② |--⑦-|
③④⑤⑥ |⑧-⑨-|
65
⑧⑩⑨⑧ |①②③④|
口②①口 |⑤⑥⑦-|
⑦④③⑦ |--⑧-|
口⑥⑤口 |--⑨⑩|
66
⑧⑩⑨⑧ |①②③④|
口②①口 |⑤⑥⑦-|
⑦④③⑦ |--⑧-|
口⑥⑤口 |--⑨⑩|
67
⑧口口⑧ |①②③④|
口②①口 |⑤⑥⑦-|
⑦④③⑦ |--⑧-|
口⑥⑤口 |----|
68
口②④口 |①-②-|
口①①口 |③-④-|
口口③口
口口口口

口口口口
⑥口⑦口
口口口⑧ |⑤-⑥-|
口⑤口口 |⑦-⑧-|
69
⑦③口⑦ |①-②-|
口口口② |③-④-|
⑤口口口 |⑤-⑥-|
①口④⑥ |⑦---|
70
⑥⑥口口 |①②-③|
④②①③ |④-⑤⑥|
④②①③
口口⑤⑤

口口⑦⑦
口⑩⑨口
口⑫⑪口 |-⑦⑧-|
⑧⑧口口 |⑨⑩⑪⑫|
71
口口口口 |①---|
①口口① |----|
①口口① |----|
口口口口 |----|
最終更新:2019年11月03日 03:07