アットウィキロゴ
水槽のクジラ
テヅカ feat. 大西あみみ

EXTREME

Level: 9.1
BPM: 206
Notes(hold): 625(50)

1
口口口口 |----|
口口口口 |----|
口口口口 |----|
口口口口 |----|
2
口口③口 |①-②-|
④⑧⑦⑥ |③-④-|
口⑤⑤① |⑤-⑥⑦|
口②口口 |⑧---|
3
③⑤⑤① |①-②-|
口口口口 |③-④-|
口口⑦⑥ |⑤---|
口②④口 |⑥-⑦-|
4
②④口② |--①-|
口口③③ |②---|
①⑥口口 |③-④-|
口口⑤⑤ |⑤-⑥-|
5
口口①口 |①-②-|
③口⑤⑤ |③-④-|
⑥⑦口② |⑤---|
口④口口 |⑥-⑦-|
6
②口口② |--①-|
口③口口 |②---|
⑥口④① |③-④-|
口⑤口口 |⑤-⑥-|
7
口③①口 |①-②-|
⑤⑤口口 |③-④-|
口口⑦⑥ |⑤---|
②口口④ |⑥-⑦-|
8
②口口② |--①-|
口口③口 |②---|
①④口⑥ |③-④-|
口口⑤口 |⑤-⑥-|
9
口口①口 |--①-|
⑦②口⑥ |②-③-|
③口口口 |④-⑤-|
⑤口口④ |⑥-⑦-|
10
∨③③∨ |①---|
|口口| |②-③-|
|①①| |--④-|
④②②④ |----|
11
口④④口 |①---|
①口②① |②-③-|
口③⑥⑤ |④---|
①口口① |⑤-⑥-|
12
②④口② |--①-|
口口③③ |②---|
①⑥口口 |③-④-|
口口⑤⑤ |⑤-⑥-|
13
口口①口 |①-②-|
③口⑤⑤ |③-④-|
⑥⑦口② |⑤---|
口④口口 |⑥-⑦-|
14
①⑤⑤③ |--①-|
②口口④ |②---|
|口口| |③-④-|
∧口口∧ |--⑤-|

口口口口
③口口⑤
口口口口
口口口口
15
口口口口 |①---|
口②④口 |--②-|
①<>③ |③---|
口口口口 |--④-|

口口口口
口口口口
②口口④
口口口口
16
③口口④ |①---|
①口口② |②---|
口③④口 |③---|
口①②口 |④---|
17
∨⑤①⑤ |①---|
①口口② |②---|
①口⑤③ |③---|
∧口④口 |④-⑤-|

口口口口
④口口口
④口口口
口口口口
18
①口①口 |--①-|
口③③口 |--②-|
口①口口 |--③-|
②口口② |----|
19
口口口② |①---|
①口口① |----|
①口口① |②---|
口口口口 |---③|
20
①口口口 |①---|
口口②口 |--②-|
③口②口 |----|
口③口口 |③---|
21
口②③口 |①---|
②④④③ |②---|
口口口① |③---|
口口①口 |--④-|
22
口口口口 |--①-|
口口口③ |----|
①①< |②---|
口口口口 |③---|

口口口口
口口口口
口②②口
口口口口
23
口口口口 |①---|
③②①④ |②---|
口口口⑤ |③---|
口口口∧ |④-⑤-|
24
①口口口 |①---|
④口②口 |②---|
③口口③ |③---|
口口口口 |④---|
25
口口口口 |①---|
④①②③ |②---|
⑤口口口 |③---|
口口口口 |④-⑤-|
26
①①口② |--①-|
||③口 |②---|
||口④ |③---|
∧∧口口 |④---|
27
①①口口 |①---|
口口口口 |----|
口口口口 |②---|
②口①口 |----|
28
口③口口 |①---|
口②口口 |--②-|
口②口③ |----|
口口口① |③---|
29
口③①口 |①---|
③―< 口 |--②-|
①∧口口 |----|
②②口③ |③---|
30
④③③③ |--①-|
③口口① |②---|
口口②口 |③---|
口口口口 |④---|
31
口口口口 |①---|
口①口② |--②-|
口口②口 |----|
口口口口 |③---|

口口口口
口口∨口
口>|③
③口③口
32
③③口④ |--①-|
①口口口 |②---|
口②口③ |③---|
口口③口 |④---|
33
口口口口 |①---|
②口①口 |--②-|
②口③口 |----|
口口口口 |③-④-|

口口口口
口口口口
∨口口口
④④<口
34
口口③口 |--①-|
④口口③ |②---|
口④口① |③---|
④④口② |④---|
35
①口⑤⑤ |①-②-|
口②口口 |③-④-|
口口③口 |----|
⑥⑥口④ |⑤-⑥-|
36
③口口④ |--①-|
③①②④ |--②-|
①④③② |③---|
口口口口 |④---|
37
口①③口 |①-②-|
口⑤⑦口 |③-④-|
口口口口 |⑤-⑥-|
④⑧⑥② |⑦-⑧-|
38
口口口口 |--①-|
口⑤⑤口 |②-③-|
④③②① |④---|
⑤口口⑤ |⑤---|
39
④⑦⑤① |①-②-|
口口口口 |③-④-|
口⑥⑧口 |⑤-⑥-|
口②③口 |⑦-⑧-|
40
①口口② |----|
①口口② |①---|
③口口口 |②---|
③口口口 |③---|
41
口①口口 |①---|
口口口口 |②---|
口>―① |③---|
口>―① |④---|

口口口口
口②口口
口③口④
口④口④
42
口>―① |①---|
①口①口 |--②-|
口口口口 |③---|
口口口口 |--④-|

口口口②
口>―③
③口③口
口口口口

口口口口
口口口④
口口口口
口口口口
43
①口①口 |①---|
口②口口 |----|
口口口③ |②---|
口口口口 |③---|
44
口①口① |①---|
口口②口 |----|
③口口口 |②---|
口口口口 |③---|
45
口口口口 |①---|
口口口口 |----|
口②②口 |②---|
口①①口 |----|
46
∨⑥⑤∨ |①-②-|
①②③① |③---|
口④④口 |④---|
口口口口 |⑤-⑥-|

口口口口
④口口④
口口口口
口口口口
47
①口口口 |①---|
口②口口 |②---|
口口③④ |③-④-|
口口口口 |--⑤-|

口口⑤⑤
口口||
口口||
口口∧∧
48
口口①① |----|
口③口口 |①---|
口③②口 |②---|
①①②口 |③---|
49
口⑤④③ |①---|
①口①口 |②---|
|口⑥② |③-④-|
∧口⑥口 |⑤-⑥-|

①口口口
|口口口
∧口口口
口口口口
50
①口口口 |①-②-|
①③③口 |--③-|
⑤②口⑤ |----|
④②口④ |④-⑤-|
51
③口②④ |①---|
①口口① |②---|
口口口口 |③-④-|
口⑤⑤口 |--⑤-|
52
口①①口 |----|
②口口② |①---|
口口口口 |②---|
口③口口 |③---|
53
口∨⑤① |①---|
口①口④ |②-③-|
③⑤③口 |④---|
∧∧口② |⑤---|
54
∨口口⑤ |①-②-|
②口③④ |③---|
口口④② |④---|
口口①口 |⑤---|

口口口口
④④口口
④④口口
口口口口
55
①口口口 |①---|
口口④口 |②---|
口口④口 |③-④-|
③口口② |--⑤-|

口口口∨
口口口⑤
口口口⑤
口口口∧
56
口口②口 |----|
口③口① |①---|
口口口① |②---|
口口口口 |③---|
57
口口④① |①---|
④<②口 |②---|
①<口③ |③---|
口口口口 |④---|

口口口口
口口口口
④口口口
口口口口
58
④口口③ |①---|
②口口① |②---|
口口②口 |③---|
口③④口 |④---|
59
口口口口 |①---|
口①①④ |②---|
③口⑤② |③-④-|
口⑥口口 |⑤-⑥-|
60
口①口口 |----|
①口②口 |①---|
口②口③ |②---|
口口③口 |③---|
61
③口①① |①---|
口③口① |--②-|
②口③口 |----|
②②口③ |③---|
62
口①口口 |--①-|
④口②⑤ |②-③-|
口③口⑤ |④---|
口口口口 |⑤---|
63
口口口② |①---|
口①③口 |②---|
④⑤口口 |③---|
口口口口 |④-⑤-|
64
①口∨口 |----|
口②|口 |①---|
口口④③ |②---|
口口口口 |③-④-|
65
口③②① |①---|
④口口⑤ |②---|
口口口口 |③---|
口口口口 |④-⑤-|
66
口③③口 |--①-|
④口④口 |②---|
①④③② |③---|
④口口口 |④---|
67
③⑤⑤① |①-②-|
口口口口 |③-④-|
口口⑦⑥ |⑤---|
口②④口 |⑥-⑦-|
68
②④口② |--①-|
口口③③ |②---|
①⑥口口 |③-④-|
口口⑤⑤ |⑤-⑥-|
69
口口①口 |①-②-|
③口⑤⑤ |③-④-|
⑥⑦口② |⑤---|
口④口口 |⑥-⑦-|
70
③口①口 |----|
∧②口口 |①---|
③口①口 |②---|
∧②口口 |③---|
71
口⑥口⑤ |①-②-|
口⑦②① |③-④-|
口口④③ |⑤---|
口口口口 |⑥-⑦-|
72
①口口口 |①---|
③口②④ |②---|
①⑤⑥② |③-④-|
口口口口 |⑤-⑥-|
73
口口①口 |--①-|
⑦②口⑥ |②-③-|
③口口口 |④-⑤-|
⑤口口④ |⑥-⑦-|
74
∨③③∨ |①---|
|口口| |②-③-|
|①①| |--④-|
④②②④ |----|
75
口④④口 |①---|
①口②① |②-③-|
口③⑥⑤ |④---|
①口口① |⑤-⑥-|
76
②④口② |--①-|
口口③③ |②---|
①⑥口口 |③-④-|
口口⑤⑤ |⑤-⑥-|
77
口口①口 |①-②-|
③口⑤⑤ |③-④-|
⑥⑦口② |⑤---|
口④口口 |⑥-⑦-|
78
①⑤⑤③ |--①-|
②口口④ |②---|
|口口| |③-④-|
∧口口∧ |--⑤-|

口口口口
③口口⑤
口口口口
口口口口
79
口口口口 |①---|
口②④口 |--②-|
①<>③ |③---|
口口口口 |--④-|

口口口口
口口口口
②口口④
口口口口
80
③口口④ |①---|
①口口② |②---|
口③④口 |③---|
口①②口 |④---|
81
∨⑤①⑤ |①---|
①口口② |②---|
①口⑤③ |③---|
∧口④口 |④-⑤-|

口口口口
④口口口
④口口口
口口口口
82
①口①口 |--①-|
口③③口 |--②-|
口①口口 |--③-|
②口口② |----|
83
口口口口 |①---|
口口口④ |②-③-|
口③②口 |----|
①①< |④---|
84
口口口口 |--①-|
①②口口 |②---|
④口口③ |③---|
口口口口 |④---|
85
口口口口 |①---|
口口③② |②-③-|
④①口口 |--④-|
口口口口 |④---|
86
口口口口 |--①-|
③④④③ |②---|
口口②① |③---|
口④④口 |④---|
87
④口口① |①---|
口口口口 |②-③-|
②③口口 |----|
口口口口 |④---|
88
口④④口 |--①-|
口③③口 |②---|
口口②① |③---|
口口口口 |④---|
89
口口口口 |①---|
①④④① |--②-|
口③③口 |----|
②口口② |③-④-|
最終更新:2019年11月08日 02:13