アットウィキロゴ
Fox4-Raize-
Getty vs. DJ DiA

BASIC

Level: 3
BPM: 50-200
Notes: 321

1
口口口口 |(200)----|
口口口口 |----|
口口口口 |----|
口口口口 |----|
2
口口口口 |①---|
口①①口 |----|
口口口口 |----|
口口口口 |----|
3
口口口口 |----|
口口口口 |----|
口口口口 |----|
口口口口 |----|
4
口口口口 |①---|
口①①口 |----|
口口口口 |----|
口口口口 |----|
5
口口口口 |----|
口口口口 |----|
口①①口 |①---|
口口口口 |----|
6
口口口口 |①---|
口①①口 |----|
口口口口 |----|
口口口口 |----|
7
口口口口 |----|
口口口口 |----|
口口口口 |----|
口口口口 |----|
8
口口口口 |①---|
口①①口 |----|
口口口口 |----|
口口口口 |----|
9
口口口口 |----|
口口口口 |----|
口①①口 |①---|
口口口口 |----|
10
口口口口 |①---|
②口口① |----|
口口口口 |②---|
口口口口 |----|
11
②口口① |①---|
口口口口 |----|
口口口口 |②---|
口口口口 |----|
12
口口口口 |①---|
口②①口 |----|
口口口口 |②---|
口口口口 |----|
13
①口口① |①---|
②口口② |②---|
③口口③ |③---|
④口口④ |④---|
14
口口口口 |①---|
口口口口 |----|
口①①口 |----|
口口口口 |----|
15
口口口口 |①---|
口①①口 |----|
口口口口 |----|
口口口口 |----|
16
口口口口 |①---|
④③②① |②---|
口口口口 |③---|
口口口口 |④---|
17
口①①口 |(50)①-②-|
口口口口
口②②口
口口口口
18
口口口口 |(200)①---|
②②①① |----|
口口口口 |②---|
口口口口 |----|
19
口口口口 |①---|
口口口口 |----|
②②①① |②---|
口口口口 |----|
20
口口口口 |①---|
口口②① |----|
口口②① |②---|
口口口口 |----|
21
口口口口 |①---|
②①口口 |----|
②①口口 |②---|
口口口口 |----|
22
口口口口 |①---|
②②①① |----|
口口口口 |②---|
口口口口 |----|
23
口口口口 |①---|
口口口口 |----|
②②①① |②---|
口口口口 |----|
24
口口口口 |①---|
口口②① |----|
口口②① |②---|
口口口口 |----|
25
①口口口 |①---|
②口口口 |②---|
③口口口 |③---|
口口口口 |----|
26
口口口口 |①---|
②口口① |----|
口口口口 |②---|
口口口口 |----|
27
②口口① |①---|
口口口口 |----|
口口口口 |②---|
口口口口 |----|
28
口口口口 |①---|
口②①口 |----|
口口口口 |②---|
口口口口 |----|
29
①口口① |①---|
②口口② |②---|
③口口③ |③---|
④口口④ |④---|
30
口口口口 |①---|
口口口口 |----|
口①①口 |----|
口口口口 |----|
31
口口口口 |①---|
口①①口 |----|
口口口口 |----|
口口口口 |----|
32
口口口口 |①---|
④③②① |②---|
口口口口 |③---|
口口口口 |④---|
33
口①①口 |①---|
口口口口 |----|
口口口口 |②---|
口②②口 |----|
34
口口口② |①---|
口①①口 |----|
口①①口 |②---|
口口口口 |----|
35
①口口口 |①---|
口口口② |----|
口口口口 |②---|
口口口口 |----|
36
②口口口 |①---|
口①①口 |----|
口①①口 |②---|
口口口口 |----|
37
口口口① |①---|
②口口口 |----|
口口口口 |②---|
口口口口 |----|
38
口口口③ |①---|
口①①口 |②---|
口②②口 |③---|
口口口口 |----|
39
①口口口 |①---|
口口口② |----|
口口口口 |②---|
口口口口 |----|
40
口口口口 |①---|
口口口口 |----|
口②②口 |----|
口①①口 |②---|
41
口口口口 |----|
①①①① |----|
口口口口 |①---|
口口口口 |----|
42
口口口② |①---|
口口口口 |----|
口①①口 |②---|
口口口口 |----|
43
口口口口 |①---|
口口①口 |----|
口②口口 |②---|
口口口口 |----|
44
②口口口 |①---|
口①①口 |----|
口口口口 |②---|
口口口口 |----|
45
口口口口 |①---|
口①口口 |----|
口口②口 |②---|
口口口口 |----|
46
口①口① |①---|
口②口② |②---|
口③口③ |③---|
口口口口 |----|
47
①口①口 |①---|
②口②口 |②---|
③口③口 |③---|
口口口口 |----|
48
口口①口 |①---|
口②口口 |②---|
口口③口 |③---|
口④口口 |④---|
49
口口口口 |----|
口口口口 |----|
口口口口 |----|
口口口口 |----|
50
口口口口 |(100)①---|
口②②口 |----|
口①①口 |②---|
口口口口 |----|
51
口口口口 |①---|
口②②口 |----|
口①①口 |②---|
口口口口 |----|
52
②口口① |①---|
②口口① |----|
口口口口 |②---|
口口口口 |----|
53
②口口① |①---|
②口口① |----|
口口口口 |②---|
口口口口 |----|
54
④口口③ |①---|
②口口① |②---|
口口口口 |③---|
口口口口 |④---|
55
③口口③ |①---|
④②①④ |②---|
⑤口口⑤ |③-④-|
⑥口口⑥ |⑤-⑥-|
56
口口口口 |①---|
口②②口 |----|
口①①口 |②---|
口口口口 |----|
57
口⑤⑤口 |①-②-|
④③②① |③-④-|
口口口口 |⑤---|
口⑥⑥口 |⑥---|
58
口口口口 |(200)①---|
②口口① |----|
②口口① |②---|
口口口口 |----|
59
口口口② |①---|
口口③① |----|
口口口① |②---|
口口口口 |③---|
60
口口口口 |①---|
①口口② |----|
①口口② |②---|
口口口口 |----|
61
口口口口 |①---|
①口口口 |----|
①口口口 |②---|
口②②口 |----|
62
口口口口 |①---|
②口口① |----|
②口口① |②---|
口口口口 |----|
63
口口口② |①---|
口口③① |----|
口口口① |②---|
口口口口 |③---|
64
口口口口 |①---|
①口口② |----|
①口口② |②---|
口口口口 |----|
65
口①口口 |①---|
口口②口 |②---|
口③口口 |③---|
口口口口 |----|
66
口口口口 |①---|
口口口口 |②---|
口口③① |③---|
口口④② |④---|
67
口口口口 |①---|
口口口口 |②---|
③①口口 |③---|
④②口口 |④---|
68
口口口口 |①---|
口口③① |②---|
口口④② |③---|
口口口口 |④---|
69
口口口口 |①---|
③①口口 |②---|
④②口口 |③---|
口口口口 |④---|
70
口口口口 |①---|
口口口口 |②---|
口口③① |③---|
口口④② |④---|
71
口口口口 |①---|
口口口口 |②---|
③①口口 |③---|
④②口口 |④---|
72
口口口口 |①---|
④③②① |②---|
口口口口 |③---|
口口口口 |④---|
73
口①①口 |①---|
口口口口 |----|
口口口口 |②---|
口②②口 |----|
74
口口口② |①---|
口口口口 |----|
口①①③ |②---|
口口口口 |③---|
75
②口口口 |①---|
口口口口 |----|
③①①口 |②---|
口口口口 |③---|
76
口口口② |①---|
口口③口 |----|
口①①口 |②---|
口口口口 |③---|
77
②口口口 |①---|
口③口口 |----|
口①①口 |②---|
口口口口 |③---|
78
口口口② |①---|
口口口口 |----|
口①①③ |②---|
口口口口 |③---|
79
②口口口 |①---|
口口口口 |----|
③①①口 |②---|
口口口口 |③---|
80
口口口② |①---|
口口③口 |----|
口①①口 |②---|
口口口口 |③---|
81
口①①口 |----|
口口口口 |①---|
口②②口 |②---|
口③③口 |③---|
82
口口口口 |①---|
②口口① |②---|
口④③口 |③---|
口口口口 |④---|
83
口口口口 |①---|
口②①口 |②---|
④口口③ |③---|
口口口口 |④---|
84
口口口口 |①---|
②口口① |②---|
口④③口 |③---|
口口口口 |④---|
85
口口口口 |①---|
口②①口 |②---|
④口口③ |③---|
口口口口 |④---|
86
口口口口 |①---|
②口口① |②---|
口④③口 |③---|
口口口口 |④---|
87
口口口口 |①---|
口②①口 |②---|
④口口③ |③---|
口口口口 |④---|
88
口口口口 |①---|
②口口① |②---|
口④③口 |③---|
口口口口 |④---|
89
口口①口 |①---|
口②口口 |②---|
口口③口 |③---|
口④口口 |④---|

accuracy: 100%
最終更新:2022年09月10日 03:05